<?xml version="1.0" standalone="no"?>
<!DOCTYPE svg PUBLIC "-//W3C//DTD SVG 1.1//EN" "http://www.w3.org/Graphics/SVG/1.1/DTD/svg11.dtd" >
<svg xmlns="http://www.w3.org/2000/svg" xmlns:xlink="http://www.w3.org/1999/xlink" version="1.1">
<metadata>
Created by FontForge 20170731 at Wed Sep 20 00:59:11 2017
 By Aleksey,,,
Copyright 2015 Google Inc. All Rights Reserved.
</metadata>
<defs>
<font id="NotoSans-BlackItalic" horiz-adv-x="0" >
  <font-face 
    font-family="Noto Sans Blk"
    font-weight="900"
    font-style="italic"
    font-stretch="normal"
    units-per-em="1000"
    panose-1="2 11 10 2 4 5 4 9 2 4"
    ascent="800"
    descent="-200"
    x-height="553"
    cap-height="714"
    bbox="-627 -389 2869 1124"
    underline-thickness="50"
    underline-position="-175"
    slope="-12"
    unicode-range="U+000D-FFFD"
  />
<missing-glyph horiz-adv-x="600" 
d="M95 0v714h410v-714h-410zM146 51h308v612h-308v-612z" />
    <glyph glyph-name="f_f" unicode="ff" horiz-adv-x="760" 
d="M-1 -240q-26 0 -55 4t-46 9v148q14 -4 29 -6.5t28 -2.5q36 0 54.5 15t25.5 46l93 438h-81l21 93l92 47l8 36q21 94 71.5 136t134.5 42q39 0 75.5 -7.5t62.5 -20.5l-48 -129q-14 7 -30.5 11t-32.5 4q-37 0 -45 -35l-8 -35h162l8 34q21 94 71.5 136t134.5 42
q39 0 75.5 -7.5t62.5 -20.5l-48 -129q-14 7 -30.5 11t-32.5 4q-37 0 -45 -35l-8 -35h103l-32 -142h-102l-100 -468q-11 -53 -36.5 -94.5t-70 -65t-111.5 -23.5q-26 0 -55 4t-46 9v148q14 -4 29 -6.5t28 -2.5q36 0 54.5 15t25.5 46l93 438h-161l-100 -468
q-11 -53 -36.5 -94.5t-70 -65t-111.5 -23.5z" />
    <glyph glyph-name="f_i" unicode="fi" horiz-adv-x="735" 
d="M-1 -240q-26 0 -55 4t-46 9v148q14 -4 29 -6.5t28 -2.5q36 0 54.5 15t25.5 46l93 438h-81l21 93l92 47l8 36q21 94 71.5 136t134.5 42q39 0 75.5 -7.5t62.5 -20.5l-48 -129q-14 7 -30.5 11t-32.5 4q-37 0 -45 -35l-8 -35h103l-32 -142h-102l-100 -468
q-11 -53 -36.5 -94.5t-70 -65t-111.5 -23.5zM654 606q-40 0 -66.5 15.5t-26.5 53.5q0 49 29 75.5t81 26.5q37 0 65 -15.5t28 -53.5q0 -46 -27 -74t-83 -28zM421 0l117 553h190l-118 -553h-189z" />
    <glyph glyph-name="f_l" unicode="fl" horiz-adv-x="735" 
d="M-1 -240q-26 0 -55 4t-46 9v148q14 -4 29 -6.5t28 -2.5q36 0 54.5 15t25.5 46l93 438h-81l21 93l92 47l8 36q21 94 71.5 136t134.5 42q39 0 75.5 -7.5t62.5 -20.5l-48 -129q-14 7 -30.5 11t-32.5 4q-37 0 -45 -35l-8 -35h103l-32 -142h-102l-100 -468
q-11 -53 -36.5 -94.5t-70 -65t-111.5 -23.5zM421 0l161 760h189l-161 -760h-189z" />
    <glyph glyph-name="f_f_i" unicode="ffi" horiz-adv-x="1056" 
d="M975 606q-40 0 -66.5 15.5t-26.5 53.5q0 49 29 75.5t81 26.5q38 0 65.5 -15.5t27.5 -53.5q0 -46 -27 -74t-83 -28zM-1 -240q-26 0 -55 4t-46 9v148q14 -4 29 -6.5t28 -2.5q36 0 54.5 15t25.5 46l93 438h-81l21 93l92 47l8 36q21 94 71.5 136t134.5 42q39 0 75.5 -7.5
t62.5 -20.5l-48 -129q-14 7 -30.5 11t-32.5 4q-37 0 -45 -35l-8 -35h162l8 34q21 94 71.5 136t134.5 42q39 0 75.5 -7.5t62.5 -20.5l-48 -129q-14 7 -30.5 11t-32.5 4q-37 0 -45 -35l-8 -35h103l-32 -142h-102l-100 -468q-11 -53 -36.5 -94.5t-70 -65t-111.5 -23.5
q-26 0 -55 4t-46 9v148q14 -4 29 -6.5t28 -2.5q36 0 54.5 15t25.5 46l93 438h-161l-100 -468q-11 -53 -36.5 -94.5t-70 -65t-111.5 -23.5zM742 0l117 553h190l-118 -553h-189z" />
    <glyph glyph-name="f_f_l" unicode="ffl" horiz-adv-x="1054" 
d="M-1 -240q-26 0 -55 4t-46 9v148q14 -4 29 -6.5t28 -2.5q36 0 54.5 15t25.5 46l93 438h-81l21 93l92 47l8 36q21 94 71.5 136t134.5 42q39 0 75.5 -7.5t62.5 -20.5l-48 -129q-14 7 -30.5 11t-32.5 4q-37 0 -45 -35l-8 -35h162l8 34q21 94 71.5 136t134.5 42
q39 0 75.5 -7.5t62.5 -20.5l-48 -129q-14 7 -30.5 11t-32.5 4q-37 0 -45 -35l-8 -35h103l-32 -142h-102l-100 -468q-11 -53 -36.5 -94.5t-70 -65t-111.5 -23.5q-26 0 -55 4t-46 9v148q14 -4 29 -6.5t28 -2.5q36 0 54.5 15t25.5 46l93 438h-161l-100 -468
q-11 -53 -36.5 -94.5t-70 -65t-111.5 -23.5zM740 0l161 760h189l-161 -760h-189z" />
    <glyph glyph-name=".notdef" horiz-adv-x="600" 
d="M95 0v714h410v-714h-410zM146 51h308v612h-308v-612z" />
    <glyph glyph-name=".null" 
 />
    <glyph glyph-name="nonmarkingreturn" horiz-adv-x="333" 
 />
    <glyph glyph-name="NULL" 
 />
    <glyph glyph-name="NULL" 
 />
    <glyph glyph-name="CR" unicode="&#xd;" horiz-adv-x="260" 
 />
    <glyph glyph-name="space" unicode=" " horiz-adv-x="260" 
 />
    <glyph glyph-name="exclam" unicode="!" horiz-adv-x="304" 
d="M61 252l76 462h208l-124 -462h-160zM97 -12q-52 0 -71.5 23t-19.5 51q0 48 29.5 81t89.5 33q42 0 65 -20t23 -56q0 -56 -32.5 -84t-83.5 -28z" />
    <glyph glyph-name="quotedbl" unicode="&#x22;" horiz-adv-x="454" 
d="M304 456l36 258h167l-77 -258h-126zM89 456l35 258h167l-77 -258h-125z" />
    <glyph glyph-name="numbersign" unicode="#" horiz-adv-x="646" 
d="M59 0l55 192h-107l10 116h130l28 98h-115l10 118h139l54 190h132l-54 -190h82l54 190h132l-54 -190h108l-10 -118h-132l-28 -98h119l-10 -116h-143l-54 -192h-132l55 192h-82l-55 -192h-132zM279 308h82l28 98h-82z" />
    <glyph glyph-name="dollar" unicode="$" horiz-adv-x="580" 
d="M179 -59l20 93q-61 4 -102 16.5t-67 28.5l-3 149q52 -24 104.5 -38t97.5 -18l29 136q-76 29 -121 72t-45 112q0 93 67 144.5t181 58.5l14 65h82l-15 -67q80 -7 153 -43l-49 -131q-27 14 -63 23.5t-70 13.5l-29 -135q87 -39 124.5 -79.5t37.5 -101.5q0 -62 -32 -107.5
t-87.5 -71t-125.5 -29.5l-19 -91h-82zM289 455l22 99q-29 -6 -38.5 -21t-9.5 -34q0 -17 6.5 -27t19.5 -17zM310 175q30 7 42.5 20.5t12.5 31.5t-9 30t-24 21z" />
    <glyph glyph-name="percent" unicode="%" horiz-adv-x="930" 
d="M214 276q-76 0 -117 42.5t-41 125.5q0 44 11.5 92.5t36.5 91t66 69.5t101 27q78 0 117 -44t39 -124q0 -43 -10.5 -91.5t-35 -91.5t-65.5 -70t-102 -27zM143 0l532 714h141l-528 -714h-145zM223 394q15 0 27 17t20.5 44t13 56.5t4.5 53.5q0 41 -26 41q-14 0 -25.5 -16.5
t-20.5 -42.5t-14 -55.5t-5 -56.5q0 -41 26 -41zM694 -10q-76 0 -117 42.5t-41 125.5q0 44 11.5 92.5t36.5 91t66 69.5t101 27q78 0 117 -44t39 -124q0 -43 -10.5 -91.5t-35 -91.5t-65.5 -70t-102 -27zM703 108q15 0 27 17t20.5 44t13 56.5t4.5 53.5q0 41 -26 41
q-14 0 -25.5 -16.5t-20.5 -42.5t-14 -55.5t-5 -56.5q0 -41 26 -41z" />
    <glyph glyph-name="ampersand" unicode="&#x26;" horiz-adv-x="733" 
d="M258 -10q-116 0 -185 51t-69 147q0 82 45.5 132.5t129.5 77.5q-20 26 -30.5 62.5t-10.5 59.5q0 98 62.5 151.5t172.5 53.5q57 0 103 -18t73 -53.5t27 -86.5q0 -71 -44 -120t-123 -90l63 -91q20 21 39 59.5t29 75.5h187q-24 -85 -66 -155t-89 -118l93 -128h-216l-21 30
q-32 -17 -76 -28.5t-94 -11.5zM335 463q28 11 48.5 34t20.5 57q0 17 -11 29.5t-29 12.5q-24 0 -39 -17t-15 -46q0 -11 5 -31t20 -39zM279 140q20 0 37 4t30 9l-94 136q-33 -14 -45 -36t-12 -46q0 -25 20 -46t64 -21z" />
    <glyph glyph-name="quotesingle" unicode="'" horiz-adv-x="238" 
d="M89 456l35 258h167l-77 -258h-125z" />
    <glyph glyph-name="parenleft" unicode="(" horiz-adv-x="374" 
d="M107 -158q-23 41 -40 95.5t-25.5 112t-8.5 109.5q0 170 64.5 310t185.5 265h158q-71 -77 -127 -165.5t-88.5 -192.5t-32.5 -225q0 -47 6.5 -101t19.5 -108t31 -100h-143z" />
    <glyph glyph-name="parenright" unicode=")" horiz-adv-x="374" 
d="M-65 -158q71 77 126 165.5t86.5 192.5t31.5 225q0 47 -7 101t-20 108t-31 100h144q25 -44 41.5 -98t24.5 -110.5t8 -108.5q0 -170 -61.5 -310t-183.5 -265h-159z" />
    <glyph glyph-name="asterisk" unicode="*" horiz-adv-x="542" 
d="M338 269l-39 148l-81 -119l-122 90l124 112l-146 41l49 136l156 -81l15 171l150 -30l-57 -162l180 15l-11 -147l-151 20l72 -152z" />
    <glyph glyph-name="plus" unicode="+" horiz-adv-x="586" 
d="M358 418h182v-131h-182v-176h-131v176h-182v131h182v179h131v-179z" />
    <glyph glyph-name="comma" unicode="," horiz-adv-x="306" 
d="M-51 -129q26 59 49.5 126t42.5 119h170l4 -11q-23 -53 -56.5 -116t-68.5 -118h-141z" />
    <glyph glyph-name="hyphen" unicode="-" horiz-adv-x="329" 
d="M11 192l31 152h270l-31 -152h-270z" />
    <glyph glyph-name="period" unicode="." horiz-adv-x="306" 
d="M85 -12q-38 0 -61.5 18t-23.5 56q0 59 35.5 86.5t83.5 27.5q39 0 63.5 -18.5t24.5 -57.5q0 -64 -33.5 -88t-88.5 -24z" />
    <glyph glyph-name="slash" unicode="/" horiz-adv-x="467" 
d="M-44 -10l409 734h168l-409 -734h-168z" />
    <glyph glyph-name="zero" unicode="0" horiz-adv-x="580" 
d="M239 -10q-98 0 -153 59t-55 178q0 73 12 144.5t37 135t63.5 113t91.5 77.5t122 28q57 0 97 -21t64.5 -56t35.5 -78.5t11 -89.5q0 -97 -20 -185t-60.5 -157t-101.5 -108.5t-144 -39.5zM258 144q25 0 46.5 33t37 85t24.5 111t9 111q0 41 -9 64t-31 23t-42.5 -33.5
t-36.5 -86.5t-25.5 -113.5t-9.5 -114.5q0 -41 7.5 -60t29.5 -19z" />
    <glyph glyph-name="one" unicode="1" horiz-adv-x="580" 
d="M188 0l85 390q6 28 16.5 64t20.5 61q-14 -13 -33 -28t-31 -22l-99 -61l-74 123l303 187h152l-150 -714h-190z" />
    <glyph glyph-name="two" unicode="2" horiz-adv-x="580" 
d="M-28 0l26 125l236 213q71 64 96 106.5t25 69.5q0 24 -12.5 36t-32.5 12q-32 0 -65.5 -18.5t-71.5 -53.5l-91 126q52 50 117.5 79t146.5 29q88 0 143.5 -48t55.5 -132q0 -46 -16.5 -89.5t-57.5 -92t-114 -111.5l-100 -86v-6h239l-33 -159h-491z" />
    <glyph glyph-name="three" unicode="3" horiz-adv-x="580" 
d="M195 -10q-53 0 -104.5 10t-83.5 29v162q43 -26 90 -37.5t94 -11.5q58 0 96 20t38 68q0 21 -10.5 35.5t-39.5 22t-86 7.5h-41l26 142h38q70 0 111 22.5t41 62.5q0 17 -14.5 33.5t-51.5 16.5q-33 0 -65.5 -11.5t-66.5 -29.5l-77 121q52 33 107.5 52.5t137.5 19.5
q96 0 156 -45t60 -124t-47 -123.5t-120 -59.5v-4q66 -13 100 -56.5t34 -101.5q0 -78 -44 -126.5t-117.5 -71t-160.5 -22.5z" />
    <glyph glyph-name="four" unicode="4" horiz-adv-x="580" 
d="M234 0l29 138h-268l25 125l372 451h176l-91 -432h73l-30 -144h-73l-29 -138h-184zM191 282h102l24 95q5 17 11 38.5t11 40t7 24.5h-4q-9 -16 -25 -41.5t-31 -42.5z" />
    <glyph glyph-name="five" unicode="5" horiz-adv-x="580" 
d="M212 -10q-36 0 -76 4.5t-73.5 13.5t-52.5 23v158q36 -21 86 -34t92 -13q64 0 99.5 22t35.5 72q0 34 -22.5 58.5t-68.5 24.5q-26 0 -53.5 -4.5t-45.5 -11.5l-60 45l105 366h397l-33 -158h-230l-29 -90q13 2 22 2h15q55 0 100 -24.5t71.5 -72t26.5 -115.5q0 -90 -38 -149
t-106.5 -88t-161.5 -29z" />
    <glyph glyph-name="six" unicode="6" horiz-adv-x="580" 
d="M272 -10q-82 0 -133 32.5t-75.5 91t-24.5 135.5q0 69 16 141t46.5 135t74.5 103q43 40 86 60.5t94.5 28t117.5 7.5q28 0 57 -4t57 -11l-31 -148q-19 5 -44 8.5t-45 3.5q-77 0 -123 -19t-72.5 -58.5t-46.5 -101.5h4q20 32 54 57.5t96 25.5q74 0 117 -47.5t43 -148.5
q0 -83 -31.5 -149t-91 -104t-145.5 -38zM274 140q24 0 40.5 18.5t25 47t8.5 60.5q0 29 -11 46t-34 17t-41 -18t-28 -48q-8 -27 -8 -58q0 -32 13 -48.5t35 -16.5z" />
    <glyph glyph-name="seven" unicode="7" horiz-adv-x="580" 
d="M17 0l350 554h-280l34 160h503l-25 -113l-363 -601h-219z" />
    <glyph glyph-name="eight" unicode="8" horiz-adv-x="580" 
d="M262 -10q-78 0 -131 24t-80 63.5t-27 87.5q0 74 41.5 125t120.5 79q-30 24 -53 58.5t-23 92.5q0 55 27.5 101.5t82 75t134.5 28.5q102 0 156.5 -46.5t54.5 -116.5q0 -57 -35 -107.5t-102 -72.5q45 -34 68.5 -77t23.5 -100q0 -101 -69 -158t-189 -57zM329 454
q31 12 46.5 37t15.5 48q0 24 -14 36t-32 12q-23 0 -40.5 -19.5t-17.5 -47.5q0 -20 11.5 -38.5t30.5 -27.5zM267 128q31 0 53.5 19.5t22.5 54.5q0 29 -15.5 53t-42.5 42q-35 -19 -59 -46t-24 -63q0 -30 20.5 -45t44.5 -15z" />
    <glyph glyph-name="nine" unicode="9" horiz-adv-x="580" 
d="M155 -10q-31 0 -56 4t-47 11v153q24 -10 47.5 -15t51.5 -3q92 4 142.5 47.5t70.5 132.5h-4q-20 -32 -53 -58.5t-94 -26.5q-75 0 -117.5 54t-42.5 144q0 77 28.5 143.5t88.5 107t153 40.5q81 0 132.5 -33.5t75.5 -92t24 -133.5q0 -69 -13.5 -138t-43.5 -131.5t-80 -109.5
q-46 -44 -111.5 -70t-151.5 -26zM290 385q22 0 40 17t28 44q4 13 7 27t3 30q0 30 -12.5 50.5t-35.5 20.5q-32 0 -53.5 -35.5t-21.5 -83.5q0 -70 45 -70z" />
    <glyph glyph-name="colon" unicode=":" horiz-adv-x="306" 
d="M180 372q-38 0 -61.5 18.5t-23.5 56.5q0 59 35 86t83 27q40 0 64.5 -18.5t24.5 -56.5q0 -65 -33 -89t-89 -24zM85 -12q-38 0 -61.5 18t-23.5 56q0 59 35.5 86.5t83.5 27.5q39 0 63.5 -18.5t24.5 -57.5q0 -64 -33.5 -88t-88.5 -24z" />
    <glyph glyph-name="semicolon" unicode=";" horiz-adv-x="306" 
d="M180 372q-38 0 -61.5 18.5t-23.5 56.5q0 59 35 86t83 27q40 0 64.5 -18.5t24.5 -56.5q0 -65 -33 -89t-89 -24zM-57 -129q26 59 49.5 126t42.5 119h170l4 -11q-23 -53 -56.5 -116t-68.5 -118h-141z" />
    <glyph glyph-name="less" unicode="&#x3c;" horiz-adv-x="586" 
d="M539 87l-494 219v84l494 247v-145l-303 -138l303 -123v-144z" />
    <glyph glyph-name="equal" unicode="=" horiz-adv-x="586" 
d="M45 398v131h496v-131h-496zM45 175v132h496v-132h-496z" />
    <glyph glyph-name="greater" unicode="&#x3e;" horiz-adv-x="586" 
d="M45 231l303 123l-303 138v145l494 -247v-84l-494 -219v144z" />
    <glyph glyph-name="question" unicode="?" horiz-adv-x="488" 
d="M122 252q10 54 24.5 88.5t40 60t68.5 54.5q49 32 64 49.5t15 34.5q0 15 -9 24.5t-35 9.5q-27 0 -66.5 -13t-86.5 -40l-58 138q47 28 104.5 47t120.5 19q99 0 156.5 -44t57.5 -121q0 -55 -19.5 -90.5t-50 -60t-65.5 -45.5q-38 -23 -56.5 -38t-27.5 -31t-17 -42h-160z
M163 -12q-52 0 -71.5 23t-19.5 51q0 48 29.5 81t89.5 33q42 0 65 -20t23 -56q0 -56 -32.5 -84t-83.5 -28z" />
    <glyph glyph-name="at" unicode="@" horiz-adv-x="897" 
d="M381 -91q-101 0 -178 40t-120 115t-43 180q0 117 37 206.5t101 150.5t146.5 92t173.5 31q114 0 196.5 -37.5t127 -109t44.5 -173.5q0 -84 -33.5 -153t-92 -109.5t-131.5 -40.5q-39 0 -66.5 15t-40.5 48h-5q-23 -32 -54 -47.5t-77 -15.5q-57 0 -93 40.5t-36 108.5
q0 47 16 96.5t49 91.5t83.5 68t118.5 26q40 0 82.5 -9.5t81.5 -24.5l-49 -202q-5 -22 -8 -37.5t-3 -29.5q0 -20 19 -20q27 0 52.5 20.5t42 63t16.5 108.5q0 97 -61 154t-191 57q-92 0 -163.5 -44t-113 -124t-41.5 -188q0 -79 30 -131t78 -78t103 -26q48 0 111.5 11.5
t122.5 34.5v-110q-41 -19 -104 -33.5t-128 -14.5zM411 209q29 0 48.5 24.5t36.5 92.5l23 93q-12 5 -25 5q-32 0 -54.5 -16.5t-37.5 -42t-22 -53.5t-7 -52q0 -51 38 -51z" />
    <glyph glyph-name="A" unicode="A" horiz-adv-x="676" 
d="M-59 0l363 714h246l60 -714h-186l-5 134h-219l-61 -134h-198zM270 286h143l-7 205q-1 24 -1.5 47.5t0.5 44.5h-3q-15 -45 -35 -88z" />
    <glyph glyph-name="B" unicode="B" horiz-adv-x="634" 
d="M16 0l151 714h238q115 0 165 -44t50 -112q0 -73 -37.5 -118t-107.5 -66v-4q43 -14 68.5 -49.5t25.5 -86.5q0 -84 -38.5 -135.5t-103.5 -75t-144 -23.5h-267zM300 440h35q50 0 68.5 22t18.5 56q0 50 -62 50h-31zM239 149h40q43 0 70.5 24.5t27.5 58.5t-16.5 50.5
t-56.5 16.5h-33z" />
    <glyph glyph-name="C" unicode="C" horiz-adv-x="630" 
d="M315 -10q-89 0 -148 35t-87.5 97.5t-28.5 145.5q0 64 14 129t42.5 124t73.5 105t107 72.5t142 26.5q71 0 128 -17t107 -47l-72 -149q-46 27 -84 40.5t-79 13.5q-44 0 -78 -24t-58.5 -65t-37 -92.5t-12.5 -106.5q0 -65 27.5 -97.5t78.5 -32.5q44 0 85.5 11t94.5 33v-158
q-52 -23 -106 -33.5t-109 -10.5z" />
    <glyph glyph-name="D" unicode="D" horiz-adv-x="684" 
d="M16 0l151 714h203q131 0 207 -69t76 -201q0 -138 -48.5 -237.5t-139.5 -153t-219 -53.5h-230zM241 158h34q55 0 96.5 34.5t65 97t23.5 144.5q0 61 -26.5 92.5t-73.5 31.5h-35z" />
    <glyph glyph-name="E" unicode="E" horiz-adv-x="562" 
d="M16 0l151 714h424l-32 -155h-233l-23 -112h217l-35 -155h-217l-28 -135h233l-33 -157h-424z" />
    <glyph glyph-name="F" unicode="F" horiz-adv-x="569" 
d="M16 0l151 714h421l-33 -155h-230l-28 -136h213l-34 -156h-214l-55 -267h-191z" />
    <glyph glyph-name="G" unicode="G" horiz-adv-x="698" 
d="M319 -10q-121 0 -194.5 71.5t-73.5 213.5q0 86 25.5 166.5t77 144.5t130 101.5t185.5 37.5q62 0 118.5 -13.5t100.5 -38.5l-72 -151q-31 18 -68.5 31t-80.5 13q-63 0 -105.5 -29t-68.5 -73.5t-37.5 -94t-11.5 -91.5q0 -68 26 -98.5t76 -30.5q20 0 33 1.5t32 5.5l25 113
h-112l33 149h298l-82 -388q-51 -16 -112.5 -28t-141.5 -12z" />
    <glyph glyph-name="H" unicode="H" horiz-adv-x="714" 
d="M16 0l151 714h191l-55 -265h170l55 265h191l-151 -714h-191l61 291h-169l-62 -291h-191z" />
    <glyph glyph-name="I" unicode="I" horiz-adv-x="426" 
d="M-36 0l23 109l94 39l88 414l-78 42l23 110h367l-23 -110l-98 -42l-88 -414l79 -39l-23 -109h-364z" />
    <glyph glyph-name="J" unicode="J" horiz-adv-x="373" 
d="M-56 -225q-26 0 -53.5 4t-50.5 10v156q18 -5 38.5 -8.5t46.5 -3.5q46 0 75 25t45 99l141 657h191l-146 -681q-20 -94 -54.5 -150.5t-90.5 -82t-142 -25.5z" />
    <glyph glyph-name="K" unicode="K" horiz-adv-x="669" 
d="M16 0l151 714h191l-66 -305l71 100l156 205h224l-269 -329l132 -385h-214l-85 282l-47 -27l-53 -255h-191z" />
    <glyph glyph-name="L" unicode="L" horiz-adv-x="527" 
d="M16 0l151 714h191l-118 -558h233l-33 -156h-424z" />
    <glyph glyph-name="M" unicode="M" horiz-adv-x="909" 
d="M16 0l151 714h253v-507h4l233 507h257l-153 -714h-171l57 268q16 74 28 122t20.5 77t11.5 45h-4l-235 -512h-181v512h-4q-12 -76 -22 -139t-20 -111l-55 -262h-170z" />
    <glyph glyph-name="N" unicode="N" horiz-adv-x="790" 
d="M16 0l151 714h222l140 -480h4l7.5 55t10 67t10.5 59l64 299h170l-151 -714h-222l-141 502h-4q-1 -10 -3.5 -33.5t-6 -54t-8.5 -61.5t-10 -55l-63 -298h-170z" />
    <glyph glyph-name="O" unicode="O" horiz-adv-x="737" 
d="M325 -10q-137 0 -205.5 75t-68.5 200q0 83 23.5 164.5t71 148.5t120.5 107t172 40q132 0 200 -75.5t68 -199.5q0 -83 -22.5 -164.5t-69.5 -148.5t-118.5 -107t-170.5 -40zM342 148q48 0 87 41t61.5 109t22.5 150q0 56 -23.5 87.5t-67.5 31.5q-40 0 -73 -26.5t-56.5 -70
t-36 -97t-12.5 -107.5q0 -118 98 -118z" />
    <glyph glyph-name="P" unicode="P" horiz-adv-x="623" 
d="M16 0l151 714h182q95 0 152.5 -28.5t83.5 -77t26 -108.5q0 -86 -39.5 -144.5t-110.5 -88.5t-163 -30h-42l-49 -237h-191zM290 393h31q45 0 72 28.5t27 72.5q0 25 -15.5 44.5t-50.5 19.5h-29z" />
    <glyph glyph-name="Q" unicode="Q" horiz-adv-x="737" 
d="M401 -170l-79 160h-11q-84 0 -142 34t-88 96t-30 145t23.5 164.5t71 148.5t121 107t174.5 40q130 0 197.5 -75.5t67.5 -199.5q0 -82 -22.5 -162t-68 -146t-116.5 -106l116 -206h-214zM333 151q53 0 93.5 41t63.5 108.5t23 148.5q0 58 -23 87t-65 29q-53 0 -93.5 -41.5
t-64 -110t-23.5 -150.5q0 -55 23.5 -83.5t65.5 -28.5z" />
    <glyph glyph-name="R" unicode="R" horiz-adv-x="650" 
d="M16 0l151 714h189q123 0 188.5 -49t65.5 -147q0 -66 -21.5 -109.5t-53.5 -70t-63 -39.5l129 -299h-208l-95 260h-36l-55 -260h-191zM293 405h25q38 0 69.5 23t31.5 78q0 26 -14.5 44t-51.5 18h-26z" />
    <glyph glyph-name="S" unicode="S" horiz-adv-x="548" 
d="M205 -10q-53 0 -101 12t-83 35v171q39 -24 92 -42.5t98 -18.5q73 0 73 58q0 27 -23.5 49t-56.5 49q-50 41 -79.5 87.5t-29.5 111.5q0 64 32 114.5t88.5 79t132.5 28.5q58 0 112 -13.5t98 -38.5l-66 -145q-34 17 -71.5 30t-70.5 13q-40 0 -52.5 -18.5t-12.5 -35.5
q0 -22 16 -43.5t63 -56.5q59 -44 86 -90.5t27 -106.5q0 -107 -70.5 -168t-201.5 -61z" />
    <glyph glyph-name="T" unicode="T" horiz-adv-x="552" 
d="M115 0l116 556h-155l34 158h502l-35 -158h-155l-116 -556h-191z" />
    <glyph glyph-name="U" unicode="U" horiz-adv-x="701" 
d="M298 -10q-74 0 -127.5 27t-81.5 73.5t-28 106.5q0 15 1.5 32.5t4.5 33.5l97 451h191l-95 -446q-3 -14 -5 -28.5t-2 -27.5q0 -29 16 -45.5t47 -16.5q43 0 68 29t40 99l93 436h191l-97 -455q-19 -87 -55.5 -147t-99 -91t-158.5 -31z" />
    <glyph glyph-name="V" unicode="V" horiz-adv-x="617" 
d="M124 0l-51 714h187l12 -360q1 -26 0.5 -61t-2.5 -67.5t-5 -52.5h4q9 39 24 82t25 66l171 393h202l-354 -714h-213z" />
    <glyph glyph-name="W" unicode="W" horiz-adv-x="935" 
d="M98 0l-24 714h181l-5 -358q-1 -43 -3 -89t-6 -79h4q11 33 26.5 73t31.5 76l164 377h164v-387q0 -17 -0.5 -42.5t-1.5 -53t-3 -51.5h4q8 26 19 60t23.5 69t23.5 63l135 342h189l-310 -714h-225v274q0 38 1.5 80t4.5 83h-4q-15 -47 -31.5 -91t-35.5 -87l-110 -259h-212z
" />
    <glyph glyph-name="X" unicode="X" horiz-adv-x="663" 
d="M-61 0l275 379l-109 335h203l60 -229l151 229h219l-263 -354l128 -360h-211l-71 243l-165 -243h-217z" />
    <glyph glyph-name="Y" unicode="Y" horiz-adv-x="604" 
d="M137 0l59 277l-116 437h197l44 -265l152 265h213l-299 -437l-59 -277h-191z" />
    <glyph glyph-name="Z" unicode="Z" horiz-adv-x="539" 
d="M-45 0l23 118l337 440h-234l33 156h481l-25 -120l-342 -438h265l-33 -156h-505z" />
    <glyph glyph-name="bracketleft" unicode="[" horiz-adv-x="360" 
d="M-26 -168l192 902h259l-27 -124h-105l-139 -654h105l-26 -124h-259z" />
    <glyph glyph-name="backslash" unicode="\" horiz-adv-x="467" 
d="M224 -10l-116 734h151l121 -734h-156z" />
    <glyph glyph-name="bracketright" unicode="]" horiz-adv-x="360" 
d="M-65 -168l26 124h104l139 654h-105l27 124h258l-192 -902h-257z" />
    <glyph glyph-name="asciicircum" unicode="^" horiz-adv-x="535" 
d="M-3 245l308 469h84l139 -469h-134l-76 278l-176 -278h-145z" />
    <glyph glyph-name="underscore" unicode="_" horiz-adv-x="450" 
d="M-90 -185l28 120h454l-28 -120h-454z" />
    <glyph glyph-name="grave" unicode="`" horiz-adv-x="353" 
d="M268 606q-33 31 -69.5 72t-54.5 78v10h193q6 -32 17.5 -71t28.5 -77v-12h-115z" />
    <glyph glyph-name="a" unicode="a" horiz-adv-x="607" 
d="M198 -10q-42 0 -78 20t-57.5 66t-21.5 125q0 40 9.5 89t28.5 97t48.5 88t69.5 64t90 24q47 0 77.5 -21.5t50.5 -56.5h4l26 68h151l-117 -553h-151l5 60h-4q-22 -31 -52 -50.5t-79 -19.5zM276 142q22 0 39.5 19.5t30.5 51t19 67.5q6 30 6 61t-10 50.5t-30 19.5
q-26 0 -48 -30t-35.5 -75.5t-13.5 -93.5q0 -70 42 -70z" />
    <glyph glyph-name="b" unicode="b" horiz-adv-x="607" 
d="M321 -10q-42 0 -72.5 16.5t-59.5 54.5h-4l-24 -61h-150l161 760h189l-24 -113q-9 -41 -19 -74.5t-17.5 -53l-7.5 -19.5h4q19 24 42 43.5t70 19.5q43 0 78.5 -20t57 -66.5t21.5 -124.5q0 -40 -9.5 -89t-28.5 -97t-48 -88t-69 -64t-90 -24zM275 142q26 0 48.5 30t36 76
t13.5 93q0 70 -42 70q-22 0 -39.5 -19t-29.5 -49.5t-18.5 -65t-6.5 -65.5q0 -32 9.5 -51t28.5 -19z" />
    <glyph glyph-name="c" unicode="c" horiz-adv-x="504" 
d="M247 -10q-56 0 -103 23t-75 73t-28 130q0 98 36.5 176.5t103 124.5t156.5 46q52 0 94.5 -9.5t84.5 -29.5l-60 -140q-25 11 -54 20t-56 9q-29 0 -51 -18.5t-36 -47t-21 -60.5t-7 -59q0 -49 16.5 -67.5t44.5 -18.5q35 0 68 11t70 31v-150q-39 -21 -82 -32.5t-101 -11.5z
" />
    <glyph glyph-name="d" unicode="d" horiz-adv-x="604" 
d="M198 -10q-42 0 -78 20t-57.5 66t-21.5 125q0 40 9.5 89t28.5 97t48 88t69 64t90 24q45 0 69.5 -20t46.5 -54h4q0 6 1 27t4 47.5t8 49.5l30 147h191l-161 -760h-151l5 60h-4q-20 -28 -49.5 -49t-81.5 -21zM276 142q22 0 39.5 19.5t30 50t19 65t6.5 64.5q0 31 -9.5 50.5
t-29.5 19.5q-26 0 -48.5 -30t-36 -75.5t-13.5 -93.5q0 -70 42 -70z" />
    <glyph glyph-name="e" unicode="e" horiz-adv-x="579" 
d="M260 -10q-105 0 -162 58.5t-57 160.5q0 68 19.5 131.5t58.5 113.5t98.5 79.5t140.5 29.5q93 0 146 -42t53 -112q0 -91 -71.5 -147t-225.5 -56h-29v-8q0 -72 80 -72q42 0 79.5 13t80.5 35v-134q-44 -22 -91.5 -36t-119.5 -14zM250 324h14q64 0 89 24t25 50q0 16 -10 26.5
t-31 10.5q-22 0 -40.5 -17t-30.5 -42.5t-16 -51.5z" />
    <glyph glyph-name="f" unicode="f" horiz-adv-x="410" 
d="M-1 -240q-26 0 -55 4t-46 9v148q14 -4 29 -6.5t28 -2.5q36 0 54.5 15t25.5 46l93 438h-81l21 93l92 47l8 36q21 94 71.5 136t134.5 42q39 0 75.5 -7.5t62.5 -20.5l-48 -129q-14 7 -30.5 11t-32.5 4q-37 0 -45 -35l-8 -35h103l-32 -142h-102l-100 -468
q-11 -53 -36.5 -94.5t-70 -65t-111.5 -23.5z" />
    <glyph glyph-name="g" unicode="g" horiz-adv-x="607" 
d="M191 -240q-61 0 -102 9t-76 22v155q38 -20 82 -31t91 -11q46 0 72.5 22t35.5 56l5 22q5 23 13 50h-4q-20 -25 -47 -42t-74 -17q-41 0 -74.5 19.5t-52.5 64t-19 120.5q0 41 9.5 90t28.5 97t48 88.5t69 64.5t90 24q47 0 74.5 -18.5t54.5 -59.5h4l26 68h151l-120 -566
q-18 -86 -60 -135.5t-100 -70.5t-125 -21zM276 142q22 0 39.5 19.5t30 50t19 65t6.5 64.5q0 31 -9.5 50.5t-29.5 19.5q-26 0 -48.5 -30t-36 -75.5t-13.5 -93.5q0 -70 42 -70z" />
    <glyph glyph-name="h" unicode="h" horiz-adv-x="622" 
d="M11 0l161 760h189l-26 -122q-7 -35 -20 -73.5t-23 -64.5h4q26 33 59 48t74 15q51 0 83.5 -21.5t47.5 -57.5t15 -78q0 -28 -3.5 -57t-8.5 -55l-62 -294h-189l63 302q3 13 6 32.5t3 36.5q0 21 -11 31.5t-26 10.5q-28 0 -51 -33.5t-39 -109.5l-57 -270h-189z" />
    <glyph glyph-name="i" unicode="i" horiz-adv-x="325" 
d="M244 606q-40 0 -66.5 15.5t-26.5 53.5q0 49 29 75.5t81 26.5q37 0 65 -15.5t28 -53.5q0 -46 -27 -74t-83 -28zM11 0l117 553h190l-118 -553h-189z" />
    <glyph glyph-name="j" unicode="j" horiz-adv-x="325" 
d="M248 606q-40 0 -66.5 15.5t-26.5 53.5q0 49 29 75.5t81 26.5q37 0 65 -15.5t28 -53.5q0 -46 -27 -74t-83 -28zM-28 -240q-26 0 -55 4t-46 9v148q18 -6 30 -7.5t25 -1.5q30 0 53.5 16.5t31.5 55.5l121 569h189l-127 -599q-10 -50 -35.5 -94.5t-71 -72t-115.5 -27.5z" />
    <glyph glyph-name="k" unicode="k" horiz-adv-x="617" 
d="M11 0l159 760h189l-68 -324q-6 -27 -15.5 -60.5t-15.5 -49.5h4l191 227h216l-240 -250l134 -303h-214l-68 191l-49 -26l-34 -165h-189z" />
    <glyph glyph-name="l" unicode="l" horiz-adv-x="325" 
d="M11 0l161 760h189l-161 -760h-189z" />
    <glyph glyph-name="m" unicode="m" horiz-adv-x="926" 
d="M11 0l117 553h151l-8 -91h4q29 55 66 78t94 23t88 -26t44 -75h4q61 101 168 101q68 0 104 -41.5t36 -121.5q0 -45 -11 -100l-61 -300h-189l63 308q2 10 4.5 27t2.5 38q0 40 -34 40q-36 0 -58.5 -37.5t-37.5 -110.5l-54 -265h-189l64 308q2 11 4.5 29t2.5 30
q0 25 -10 35.5t-25 10.5q-28 0 -51 -29.5t-42 -114.5l-58 -269h-189z" />
    <glyph glyph-name="n" unicode="n" horiz-adv-x="622" 
d="M11 0l117 553h151l-6 -77h4q27 46 63 66.5t89 20.5q51 0 83.5 -21.5t47.5 -57.5t15 -78q0 -28 -3.5 -57t-8.5 -55l-62 -294h-189l63 302q3 13 6 32.5t3 36.5q0 21 -11 31.5t-26 10.5q-28 0 -51.5 -34.5t-38.5 -108.5l-57 -270h-189z" />
    <glyph glyph-name="o" unicode="o" horiz-adv-x="607" 
d="M254 -10q-102 0 -157.5 55.5t-55.5 157.5q0 71 20 135.5t59 115t97.5 80t135.5 29.5q102 0 157.5 -55.5t55.5 -157.5q0 -71 -20 -135.5t-59 -115t-97.5 -80t-135.5 -29.5zM275 132q28 0 50 33.5t35 85t13 105.5q0 65 -42 65q-28 0 -50 -33.5t-34.5 -84.5t-12.5 -106
q0 -65 41 -65z" />
    <glyph glyph-name="p" unicode="p" horiz-adv-x="607" 
d="M-40 -240l168 793h151l-6 -62h4q23 35 53.5 53.5t72.5 18.5q74 0 118.5 -53.5t44.5 -150.5q0 -69 -17.5 -134.5t-49.5 -118.5t-78 -84.5t-103 -31.5q-38 0 -66 19.5t-47 51.5h-4q-3 -39 -8 -78t-19 -103l-25 -120h-189zM280 142q26 0 47 30t33.5 76t12.5 93q0 70 -42 70
q-22 0 -39 -19t-29.5 -49t-19 -64.5t-6.5 -66.5t11.5 -51t31.5 -19z" />
    <glyph glyph-name="q" unicode="q" horiz-adv-x="607" 
d="M237 -240l33 143q10 42 20 76t17 54.5l7 20.5h-4q-20 -26 -47 -45t-74 -19q-37 0 -70.5 21t-55.5 66.5t-22 121.5q0 41 9.5 90t28.5 97t48 88.5t69 64.5t90 24q47 0 74.5 -18.5t54.5 -59.5h4l26 68h151l-168 -793h-191zM276 142q22 0 39.5 19.5t30 50t19 65t6.5 64.5
q0 31 -9.5 50.5t-29.5 19.5q-26 0 -48.5 -30t-36 -75.5t-13.5 -93.5q0 -70 42 -70z" />
    <glyph glyph-name="r" unicode="r" horiz-adv-x="437" 
d="M11 0l117 553h151l-9 -92h4q34 59 72 80.5t94 21.5q10 0 22 -1.5t17 -2.5l-41 -187q-10 4 -26 7.5t-34 3.5q-44 0 -76.5 -30.5t-49.5 -109.5l-52 -243h-189z" />
    <glyph glyph-name="s" unicode="s" horiz-adv-x="502" 
d="M189 -10q-55 0 -98.5 8t-75.5 23v152q45 -25 83.5 -34.5t78.5 -9.5q11 0 27 2.5t27.5 9.5t11.5 22q0 11 -5 20t-21.5 21t-49.5 30q-52 28 -75.5 65t-23.5 89q0 78 55.5 126.5t171.5 48.5q54 0 99.5 -13t87.5 -39l-59 -123q-28 18 -62.5 32t-63.5 14q-37 0 -37 -33
q0 -14 15 -25t50 -28q110 -54 110 -156q0 -103 -66.5 -152.5t-179.5 -49.5z" />
    <glyph glyph-name="t" unicode="t" horiz-adv-x="457" 
d="M200 -10q-72 0 -109.5 31t-37.5 102q0 20 3.5 46t8.5 46l41 196h-75l20 93l106 43l67 117h126l-24 -111h141l-31 -142h-141l-41 -187q-3 -14 -5.5 -28.5t-2.5 -22.5q0 -17 9 -24t22 -7q19 0 42 6.5t47 16.5v-142q-31 -15 -71.5 -24t-94.5 -9z" />
    <glyph glyph-name="u" unicode="u" horiz-adv-x="622" 
d="M193 -10q-51 0 -83.5 21.5t-47.5 57t-15 78.5q0 28 3.5 57t8.5 55l62 294h189l-63 -301q-3 -13 -6 -32.5t-3 -36.5q0 -21 11 -31.5t26 -10.5q25 0 49.5 34.5t40.5 108.5l57 269h189l-117 -553h-151l6 77h-4q-27 -47 -63 -67t-89 -20z" />
    <glyph glyph-name="v" unicode="v" horiz-adv-x="544" 
d="M114 0l-71 553h188l10 -278q1 -19 1 -38.5t-2 -35.5h4q4 14 11.5 33.5t13.5 32.5l131 286h202l-299 -553h-189z" />
    <glyph glyph-name="w" unicode="w" horiz-adv-x="823" 
d="M82 0l-32 553h178v-270q0 -27 -2 -55t-4 -51h4q6 24 14 48.5t15 45.5l106 282h199l-14 -272q-1 -15 -2 -43t-5 -61h4q9 30 17.5 54.5t19.5 52.5l111 269h188l-263 -553h-206l7 219q1 38 4 89.5t8 91.5h-4q-11 -41 -26.5 -87t-26.5 -76l-91 -237h-199z" />
    <glyph glyph-name="x" unicode="x" horiz-adv-x="566" 
d="M-58 0l231 282l-101 271h206l37 -153l91 153h224l-227 -281l111 -272h-209l-39 160l-103 -160h-221z" />
    <glyph glyph-name="y" unicode="y" horiz-adv-x="544" 
d="M12 -240q-28 0 -46 2.5t-29 5.5v150q9 -2 23 -4t30 -2q44 0 70.5 18t47.5 56l11 20l-79 547h190l19 -254q2 -25 2 -48t-1 -45h4q7 22 16.5 49.5t17.5 45.5l109 252h203l-327 -623q-45 -86 -106 -128t-155 -42z" />
    <glyph glyph-name="z" unicode="z" horiz-adv-x="485" 
d="M-20 0l21 108l245 299h-170l33 146h396l-26 -118l-242 -289h187l-32 -146h-412z" />
    <glyph glyph-name="braceleft" unicode="{" horiz-adv-x="359" 
d="M226 -158q-96 0 -136 36t-40 99q0 31 7 62l18 85q3 12 3 21q0 32 -18 49.5t-68 17.5l26 140q60 0 86.5 19.5t36.5 64.5l27 120q11 49 32.5 84.5t61.5 54.5t106 19h63l-30 -137q-36 -1 -57 -13t-29 -50l-26 -126q-12 -56 -49 -79.5t-87 -28.5v-4q43 -14 63 -42.5t20 -71.5
q0 -9 -2 -18.5t-3 -17.5l-17 -80q-3 -15 -3 -24q0 -23 14.5 -33t40.5 -10v-137h-40z" />
    <glyph glyph-name="bar" unicode="|" horiz-adv-x="566" 
d="M216 -227v983h132v-983h-132z" />
    <glyph glyph-name="braceright" unicode="}" horiz-adv-x="359" 
d="M-60 -158v137q36 1 54 6.5t26.5 19t13.5 37.5l26 126q12 56 48.5 79.5t87.5 28.5v4q-44 14 -63.5 42.5t-19.5 71.5q0 9 1.5 18.5t3.5 17.5l17 80q3 15 3 24q0 43 -66 43l26 137h30q64 0 101 -18.5t53.5 -49t16.5 -66.5q0 -32 -7 -63l-18 -85q-3 -12 -3 -21q0 -32 22 -49
t72 -17l-28 -140q-60 0 -89.5 -20t-39.5 -65l-27 -120q-11 -49 -33.5 -84.5t-64 -54.5t-107.5 -19h-36z" />
    <glyph glyph-name="asciitilde" unicode="~" horiz-adv-x="586" 
d="M274 289q-37 16 -64.5 21.5t-50.5 5.5q-29 0 -59 -17t-55 -42v137q25 26 57 39.5t72 13.5q29 0 58.5 -5.5t78.5 -25.5q37 -16 65 -21.5t51 -5.5q28 0 57.5 17t55.5 42v-137q-51 -53 -129 -53q-29 0 -58.5 6t-78.5 25z" />
    <glyph glyph-name="uni00A0" unicode="&#xa0;" horiz-adv-x="260" 
 />
    <glyph glyph-name="exclamdown" unicode="&#xa1;" horiz-adv-x="304" 
d="M167 375q-42 0 -65 20t-23 56q0 56 32.5 84t83.5 28q52 0 71.5 -22.5t19.5 -51.5q0 -48 -29.5 -81t-89.5 -33zM-53 -165l124 462h160l-76 -462h-208z" />
    <glyph glyph-name="cent" unicode="&#xa2;" horiz-adv-x="580" 
d="M182 -10l25 102q-56 16 -94 61t-38 133q0 99 31 177.5t87 127.5t132 61l16 72h112l-16 -73q34 -5 60.5 -14t52.5 -23l-60 -140q-32 15 -56.5 22t-53.5 7t-50.5 -18.5t-35.5 -48t-20.5 -64t-6.5 -66.5q0 -38 15.5 -55t43.5 -17q35 0 68.5 12t69.5 32v-152
q-34 -18 -69.5 -29t-80.5 -15l-20 -92h-112z" />
    <glyph glyph-name="sterling" unicode="&#xa3;" horiz-adv-x="580" 
d="M-9 0l31 153q38 11 60 25t34 36t19 57l10 47h-92l28 136h92l11 63q14 83 47 128t80 62t104 17q56 0 99 -12.5t83 -29.5l-70 -146q-32 15 -55.5 23t-48.5 8q-17 0 -27.5 -12t-17.5 -45l-12 -56h123l-28 -136h-123l-10 -46q-10 -45 -40 -71.5t-59 -39.5h295l-35 -161h-498z
" />
    <glyph glyph-name="currency" unicode="&#xa4;" horiz-adv-x="580" 
d="M444 113l-61 60q-19 -8 -42.5 -14t-47.5 -6q-25 0 -48 4.5t-43 14.5l-60 -58l-89 89l62 60q-22 43 -22 90q0 25 6 48t16 42l-63 61l90 90l62 -61q20 9 44 15t45 6q47 0 90 -23l61 63l92 -87l-63 -63q21 -40 21 -91q0 -25 -5 -47t-16 -44l60 -60zM293 279q31 0 53.5 21.5
t22.5 52.5t-22.5 52.5t-53.5 21.5t-52 -21.5t-21 -52.5t21 -52.5t52 -21.5z" />
    <glyph glyph-name="yen" unicode="&#xa5;" horiz-adv-x="580" 
d="M128 0l20 93h-111l21 100h111l12 63h-110l22 100h87l-91 358h188l35 -238l143 238h192l-239 -358h90l-22 -100h-109l-13 -63h109l-21 -100h-109l-20 -93h-185z" />
    <glyph glyph-name="brokenbar" unicode="&#xa6;" horiz-adv-x="566" 
d="M217 344v411h132v-411h-132zM217 -217v410h132v-410h-132z" />
    <glyph glyph-name="section" unicode="&#xa7;" horiz-adv-x="506" 
d="M184 -12q-53 0 -96 12.5t-70 33.5v122q41 -26 84.5 -42.5t90.5 -16.5q42 0 57.5 17.5t15.5 33.5q0 19 -15 34.5t-51 35.5q-56 31 -89.5 69t-33.5 92q0 35 20 72t67 65q-19 19 -29 44t-10 50q0 84 60.5 122t161.5 38q50 0 92.5 -13.5t83.5 -36.5l-49 -109
q-27 18 -62.5 33.5t-80.5 15.5q-29 0 -41.5 -11t-12.5 -25q0 -17 12 -32.5t61 -38.5q68 -31 93.5 -69.5t25.5 -82.5q0 -61 -24 -93t-58 -51q34 -40 34 -98q0 -80 -60.5 -125.5t-176.5 -45.5zM295 314q14 10 25 25t11 37q0 51 -75 83q-18 -9 -29 -26t-11 -34q0 -26 24 -46.5
t55 -38.5z" />
    <glyph glyph-name="dieresis" unicode="&#xa8;" horiz-adv-x="554" 
d="M485 614q-36 0 -59.5 12.5t-23.5 49.5q0 48 26 69.5t72 21.5q30 0 56 -11.5t26 -49.5q0 -41 -21 -66.5t-76 -25.5zM247 614q-36 0 -59.5 12.5t-23.5 49.5q0 48 26 69.5t72 21.5q20 0 39 -4.5t31.5 -17.5t12.5 -39q0 -41 -21.5 -66.5t-76.5 -25.5z" />
    <glyph glyph-name="copyright" unicode="&#xa9;" horiz-adv-x="824" 
d="M412 -10q-80 0 -147 27t-116.5 76.5t-76.5 116.5t-27 147t27 147t76.5 116.5t116.5 76.5t147 27t147 -27t116.5 -76.5t76.5 -116.5t27 -147t-27 -147t-76.5 -116.5t-116.5 -76.5t-147 -27zM412 70q82 0 144 36.5t97.5 101t35.5 149.5t-35.5 149.5t-97.5 101t-144 36.5
t-145 -36.5t-98.5 -101t-35.5 -149.5t35.5 -149.5t98.5 -101t145 -36.5zM413 128q-108 0 -162.5 63t-54.5 168q0 102 53 164t159 62q45 0 83 -10t74 -28l-45 -100q-26 13 -50 20t-53 7q-39 0 -61.5 -30t-22.5 -87q0 -62 21.5 -90t65.5 -28q32 0 64 8t62 25v-113
q-31 -16 -62.5 -23.5t-70.5 -7.5z" />
    <glyph glyph-name="ordfeminine" unicode="&#xaa;" horiz-adv-x="404" 
d="M172 356q-22 0 -46 12t-41 41t-17 80q0 39 11 79.5t32 75t52.5 55.5t72.5 21q39 0 61.5 -13t42.5 -35h4l18 42h97l-83 -352h-95l4 42h-4q-19 -20 -45.5 -34t-63.5 -14zM235 445q21 0 34.5 14t22 35t12 43t3.5 38q0 22 -8 39t-27 17q-22 0 -38 -22.5t-24.5 -54.5t-8.5 -60
q0 -23 9.5 -36t24.5 -13z" />
    <glyph glyph-name="guillemotleft" unicode="&#xab;" horiz-adv-x="623" 
d="M392 37l-95 247v5l207 242l127 -103l-136 -149l60 -175zM119 37l-89 233v5l199 253l129 -100l-130 -163l54 -161z" />
    <glyph glyph-name="logicalnot" unicode="&#xac;" horiz-adv-x="586" 
d="M540 418v-302h-132v171h-363v131h495z" />
    <glyph glyph-name="uni00AD" unicode="&#xad;" horiz-adv-x="329" 
d="M11 192l31 152h270l-31 -152h-270z" />
    <glyph glyph-name="registered" unicode="&#xae;" horiz-adv-x="824" 
d="M412 -10q-80 0 -147 27t-116.5 76.5t-76.5 116.5t-27 147t27 147t76.5 116.5t116.5 76.5t147 27t147 -27t116.5 -76.5t76.5 -116.5t27 -147t-27 -147t-76.5 -116.5t-116.5 -76.5t-147 -27zM412 70q82 0 144 36.5t97.5 101t35.5 149.5t-35.5 149.5t-97.5 101t-144 36.5
t-145 -36.5t-98.5 -101t-35.5 -149.5t35.5 -149.5t98.5 -101t145 -36.5zM253 153v427h136q104 0 148.5 -34.5t44.5 -97.5q0 -51 -20 -77.5t-49 -40.5l95 -177h-136l-71 156h-17v-156h-131zM384 395h5q29 0 45 10.5t16 37.5q0 26 -16 34t-44 8h-6v-90z" />
    <glyph glyph-name="overscore" unicode="&#xaf;" horiz-adv-x="450" 
d="M101 759l28 120h454l-28 -120h-454z" />
    <glyph glyph-name="degree" unicode="&#xb0;" horiz-adv-x="422" 
d="M211 366q-53 0 -93.5 22.5t-63.5 63t-23 92.5t23 92.5t63.5 64t93.5 23.5t93.5 -23.5t63.5 -64t23 -92.5t-23 -92.5t-63.5 -63t-93.5 -22.5zM211 482q29 0 46.5 17t17.5 45q0 29 -17.5 47t-46.5 18t-46.5 -18t-17.5 -47q0 -28 17.5 -45t46.5 -17z" />
    <glyph glyph-name="plusminus" unicode="&#xb1;" horiz-adv-x="586" 
d="M358 461h182v-131h-182v-176h-131v176h-182v131h182v179h131v-179zM45 0v131h495v-131h-495z" />
    <glyph glyph-name="uni00B2" unicode="&#xb2;" horiz-adv-x="414" 
d="M61 415l21 100l135 103q49 38 68.5 59t19.5 38q0 13 -9 19t-22 6q-17 0 -41.5 -9t-50.5 -30l-58 93q40 30 82.5 45t107.5 15q62 0 105 -28.5t43 -77.5q0 -54 -37 -94.5t-113 -89.5l-38 -24h156l-25 -125h-344z" />
    <glyph glyph-name="uni00B3" unicode="&#xb3;" horiz-adv-x="414" 
d="M236 409q-52 0 -87 8t-65 26v110q31 -21 64.5 -30.5t60.5 -9.5q74 0 74 39q0 12 -11 22.5t-44 10.5h-59l21 95h47q35 0 56 10.5t21 32.5q0 13 -10.5 20.5t-26.5 7.5q-19 0 -39 -6.5t-51 -25.5l-49 89q39 24 76.5 35t90.5 11q61 0 104.5 -25.5t43.5 -76.5t-31.5 -75.5
t-81.5 -36.5v-4q45 -11 63 -34t18 -55q0 -56 -47.5 -97t-137.5 -41z" />
    <glyph glyph-name="acute" unicode="&#xb4;" horiz-adv-x="401" 
d="M112 606v11q34 29 72 71t66 78h214v-7q-11 -13 -36.5 -34t-57.5 -43.5t-64 -43t-55 -32.5h-139z" />
    <glyph glyph-name="uni00B5" unicode="&#xb5;" horiz-adv-x="629" 
d="M-40 -240l168 793h189l-63 -301q-3 -13 -6 -32.5t-3 -36.5q0 -21 11 -31.5t26 -10.5q24 0 39.5 12.5t27 43.5t23.5 87l57 269h189l-117 -553h-141l3 60h-4q-33 -70 -93 -70q-49 0 -64 38h-4q-3 -39 -9 -74t-14 -74l-26 -120h-189z" />
    <glyph glyph-name="paragraph" unicode="&#xb6;" horiz-adv-x="643" 
d="M316 -127v400q-15 -5 -27.5 -7t-33.5 -2q-62 0 -108 23t-71.5 77t-25.5 145q0 95 27.5 150t77 78t115.5 23h309v-887h-93v775h-77v-775h-93z" />
    <glyph glyph-name="periodcentered" unicode="&#xb7;" horiz-adv-x="306" 
d="M141 260q-38 0 -61.5 18t-23.5 56q0 59 35.5 86.5t83.5 27.5q39 0 63.5 -18.5t24.5 -57.5q0 -64 -33.5 -88t-88.5 -24z" />
    <glyph glyph-name="cedilla" unicode="&#xb8;" horiz-adv-x="187" 
d="M-14 -240q-30 0 -53 3.5t-41 10.5v100q16 -5 40.5 -9t33.5 -4q33 0 33 24q0 13 -13 26.5t-58 22.5l37 66h100l-12 -20q38 -8 62.5 -30t24.5 -65q0 -59 -40 -92t-114 -33z" />
    <glyph glyph-name="uni00B9" unicode="&#xb9;" horiz-adv-x="414" 
d="M178 415l40 178q8 35 15 61t12 40q-10 -8 -21.5 -18t-14.5 -11l-58 -38l-58 90l208 127h123l-91 -429h-155z" />
    <glyph glyph-name="ordmasculine" unicode="&#xba;" horiz-adv-x="399" 
d="M227 355q-71 0 -111 38t-40 107q0 58 22.5 108.5t69 82t117.5 31.5q67 0 108.5 -38.5t41.5 -112.5q0 -55 -22 -104.5t-67.5 -80.5t-118.5 -31zM239 455q21 0 35.5 19t21.5 46.5t7 53.5q0 22 -7 35t-23 13q-22 0 -36 -21t-21 -49t-7 -50q0 -26 8 -36.5t22 -10.5z" />
    <glyph glyph-name="guillemotright" unicode="&#xbb;" horiz-adv-x="623" 
d="M394 21l-129 100l130 163l-54 161l163 67l89 -233v-5zM119 17l-126 104l135 149l-59 175l162 67l95 -247v-5z" />
    <glyph glyph-name="onequarter" unicode="&#xbc;" horiz-adv-x="932" 
d="M150 0l532 714h142l-529 -714h-145zM169 285l40 178q8 35 15 61t12 40q-10 -8 -21.5 -18t-14.5 -11l-58 -38l-58 90l208 127h123l-91 -429h-155zM665 0l13 60h-194l15 87l239 282h159l-58 -272h55l-20 -97h-55l-13 -60h-141zM619 157h79l20 77q5 20 12 44.5t11 33.5
q-8 -13 -25 -34t-27 -34z" />
    <glyph glyph-name="onehalf" unicode="&#xbd;" horiz-adv-x="977" 
d="M143 0l532 714h142l-529 -714h-145zM169 286l40 178q8 35 15 61t12 40q-10 -8 -21.5 -18t-14.5 -11l-58 -38l-58 90l208 127h123l-91 -429h-155zM536 0l21 100l135 103q49 38 68.5 59t19.5 38q0 13 -9 19t-22 6q-17 0 -41.5 -9t-50.5 -30l-58 93q40 30 82.5 45t107.5 15
q62 0 105 -28.5t43 -77.5q0 -54 -37 -94.5t-113 -89.5l-38 -24h156l-25 -125h-344z" />
    <glyph glyph-name="threequarters" unicode="&#xbe;" horiz-adv-x="954" 
d="M211 279q-52 0 -87 8t-65 26v110q31 -21 64.5 -30.5t60.5 -9.5q74 0 74 39q0 12 -11 22.5t-44 10.5h-59l21 95h47q35 0 56 10.5t21 32.5q0 13 -10.5 20.5t-26.5 7.5q-19 0 -39 -6.5t-51 -25.5l-49 89q39 24 76.5 35t90.5 11q61 0 104.5 -25.5t43.5 -76.5t-31.5 -75.5
t-81.5 -36.5v-4q45 -11 63 -34t18 -55q0 -56 -47.5 -97t-137.5 -41zM176 0l532 714h142l-529 -714h-145zM687 0l13 60h-194l15 87l239 282h159l-58 -272h55l-20 -97h-55l-13 -60h-141zM641 157h79l20 77q5 20 12 44.5t11 33.5q-8 -13 -25 -34t-27 -34z" />
    <glyph glyph-name="questiondown" unicode="&#xbf;" horiz-adv-x="488" 
d="M363 301q-10 -54 -24.5 -88.5t-40 -60t-68.5 -54.5q-49 -32 -64 -49.5t-15 -34.5q0 -15 9 -24.5t35 -9.5q27 0 66.5 13t86.5 40l58 -138q-47 -28 -104.5 -47t-120.5 -19q-99 0 -156.5 44t-57.5 121q0 55 19.5 90.5t50 60t65.5 45.5q38 23 56.5 38t27.5 31t17 42h160z
M322 565q52 0 71.5 -23t19.5 -51q0 -48 -29.5 -81t-89.5 -33q-42 0 -65 20t-23 56q0 56 32.5 84t83.5 28z" />
    <glyph glyph-name="Agrave" unicode="&#xc0;" horiz-adv-x="676" 
d="M-59 0l363 714h246l60 -714h-186l-5 134h-219l-61 -134h-198zM270 286h143l-7 205q-1 24 -1.5 47.5t0.5 44.5h-3q-15 -45 -35 -88zM417 767q-33 31 -69.5 72t-54.5 78v10h193q6 -32 17.5 -71t28.5 -77v-12h-115z" />
    <glyph glyph-name="Aacute" unicode="&#xc1;" horiz-adv-x="676" 
d="M-59 0l363 714h246l60 -714h-186l-5 134h-219l-61 -134h-198zM270 286h143l-7 205q-1 24 -1.5 47.5t0.5 44.5h-3q-15 -45 -35 -88zM343 767v11q34 29 72 71t66 78h214v-7q-11 -13 -36.5 -34t-57.5 -43.5t-64 -43t-55 -32.5h-139z" />
    <glyph glyph-name="Acircumflex" unicode="&#xc2;" horiz-adv-x="676" 
d="M-59 0l363 714h246l60 -714h-186l-5 134h-219l-61 -134h-198zM270 286h143l-7 205q-1 24 -1.5 47.5t0.5 44.5h-3q-15 -45 -35 -88zM205 767v11q23 21 50.5 47.5t54.5 53t46 48.5h218q10 -22 25 -49.5t31.5 -54t31.5 -45.5v-11h-130q-11 10 -25.5 25.5t-28 32l-22.5 27.5
q-28 -22 -57 -43.5t-60 -41.5h-134z" />
    <glyph glyph-name="Atilde" unicode="&#xc3;" horiz-adv-x="676" 
d="M-59 0l363 714h246l60 -714h-186l-5 134h-219l-61 -134h-198zM270 286h143l-7 205q-1 24 -1.5 47.5t0.5 44.5h-3q-15 -45 -35 -88zM239 765q16 91 56 129t97 38q29 0 52 -12t44 -24t44 -12q17 0 32 12t24 37h93q-19 -92 -58.5 -129.5t-98.5 -37.5q-31 0 -56 12t-46.5 24
t-43.5 12q-15 0 -29.5 -13.5t-17.5 -35.5h-92z" />
    <glyph glyph-name="Adieresis" unicode="&#xc4;" horiz-adv-x="676" 
d="M-59 0l363 714h246l60 -714h-186l-5 134h-219l-61 -134h-198zM270 286h143l-7 205q-1 24 -1.5 47.5t0.5 44.5h-3q-15 -45 -35 -88zM566 775q-36 0 -59.5 12.5t-23.5 49.5q0 48 26 69.5t72 21.5q30 0 56 -11.5t26 -49.5q0 -41 -21 -66.5t-76 -25.5zM328 775
q-36 0 -59.5 12.5t-23.5 49.5q0 48 26 69.5t72 21.5q20 0 39 -4.5t31.5 -17.5t12.5 -39q0 -41 -21.5 -66.5t-76.5 -25.5z" />
    <glyph glyph-name="Aring" unicode="&#xc5;" horiz-adv-x="676" 
d="M-59 0l363 714h246l60 -714h-186l-5 134h-219l-61 -134h-198zM270 286h143l-7 205q-1 24 -1.5 47.5t0.5 44.5h-3q-15 -45 -35 -88zM449 765q-58 0 -94.5 33t-36.5 90q0 58 36.5 91t94.5 33q55 0 93 -33t38 -90q0 -58 -37.5 -91t-93.5 -33zM449 847q17 0 30 11.5t13 29.5
q0 19 -13 30.5t-30 11.5t-30 -11.5t-13 -30.5q0 -18 11.5 -29.5t31.5 -11.5z" />
    <glyph glyph-name="AE" unicode="&#xc6;" horiz-adv-x="946" 
d="M-61 0l444 714h592l-32 -155h-233l-23 -112h217l-35 -155h-217l-28 -135h233l-33 -157h-424l28 134h-204l-83 -134h-202zM323 294h140l55 265h-33z" />
    <glyph glyph-name="Ccedilla" unicode="&#xc7;" horiz-adv-x="630" 
d="M315 -10q-89 0 -148 35t-87.5 97.5t-28.5 145.5q0 64 14 129t42.5 124t73.5 105t107 72.5t142 26.5q71 0 128 -17t107 -47l-72 -149q-46 27 -84 40.5t-79 13.5q-44 0 -78 -24t-58.5 -65t-37 -92.5t-12.5 -106.5q0 -65 27.5 -97.5t78.5 -32.5q44 0 85.5 11t94.5 33v-158
q-52 -23 -106 -33.5t-109 -10.5zM286 -240q-30 0 -53 3.5t-41 10.5v100q16 -5 40.5 -9t33.5 -4q33 0 33 24q0 13 -13 26.5t-58 22.5l37 66h100l-12 -20q38 -8 62.5 -30t24.5 -65q0 -59 -40 -92t-114 -33z" />
    <glyph glyph-name="Egrave" unicode="&#xc8;" horiz-adv-x="562" 
d="M16 0l151 714h424l-32 -155h-233l-23 -112h217l-35 -155h-217l-28 -135h233l-33 -157h-424zM370 767q-33 31 -69.5 72t-54.5 78v10h193q6 -32 17.5 -71t28.5 -77v-12h-115z" />
    <glyph glyph-name="Eacute" unicode="&#xc9;" horiz-adv-x="562" 
d="M16 0l151 714h424l-32 -155h-233l-23 -112h217l-35 -155h-217l-28 -135h233l-33 -157h-424zM296 767v11q34 29 72 71t66 78h214v-7q-11 -13 -36.5 -34t-57.5 -43.5t-64 -43t-55 -32.5h-139z" />
    <glyph glyph-name="Ecircumflex" unicode="&#xca;" horiz-adv-x="562" 
d="M16 0l151 714h424l-32 -155h-233l-23 -112h217l-35 -155h-217l-28 -135h233l-33 -157h-424zM158 767v11q23 21 50.5 47.5t54.5 53t46 48.5h218q10 -22 25 -49.5t31.5 -54t31.5 -45.5v-11h-130q-11 10 -25.5 25.5t-28 32l-22.5 27.5q-28 -22 -57 -43.5t-60 -41.5h-134z
" />
    <glyph glyph-name="Edieresis" unicode="&#xcb;" horiz-adv-x="562" 
d="M16 0l151 714h424l-32 -155h-233l-23 -112h217l-35 -155h-217l-28 -135h233l-33 -157h-424zM519 775q-36 0 -59.5 12.5t-23.5 49.5q0 48 26 69.5t72 21.5q30 0 56 -11.5t26 -49.5q0 -41 -21 -66.5t-76 -25.5zM281 775q-36 0 -59.5 12.5t-23.5 49.5q0 48 26 69.5t72 21.5
q20 0 39 -4.5t31.5 -17.5t12.5 -39q0 -41 -21.5 -66.5t-76.5 -25.5z" />
    <glyph glyph-name="Igrave" unicode="&#xcc;" horiz-adv-x="426" 
d="M-36 0l23 109l94 39l88 414l-78 42l23 110h367l-23 -110l-98 -42l-88 -414l79 -39l-23 -109h-364zM283 767q-33 31 -69.5 72t-54.5 78v10h193q6 -32 17.5 -71t28.5 -77v-12h-115z" />
    <glyph glyph-name="Iacute" unicode="&#xcd;" horiz-adv-x="426" 
d="M-36 0l23 109l94 39l88 414l-78 42l23 110h367l-23 -110l-98 -42l-88 -414l79 -39l-23 -109h-364zM209 767v11q34 29 72 71t66 78h214v-7q-11 -13 -36.5 -34t-57.5 -43.5t-64 -43t-55 -32.5h-139z" />
    <glyph glyph-name="Icircumflex" unicode="&#xce;" horiz-adv-x="426" 
d="M-36 0l23 109l94 39l88 414l-78 42l23 110h367l-23 -110l-98 -42l-88 -414l79 -39l-23 -109h-364zM71 767v11q23 21 50.5 47.5t54.5 53t46 48.5h218q10 -22 25 -49.5t31.5 -54t31.5 -45.5v-11h-130q-11 10 -25.5 25.5t-28 32l-22.5 27.5q-28 -22 -57 -43.5t-60 -41.5
h-134z" />
    <glyph glyph-name="Idieresis" unicode="&#xcf;" horiz-adv-x="426" 
d="M-36 0l23 109l94 39l88 414l-78 42l23 110h367l-23 -110l-98 -42l-88 -414l79 -39l-23 -109h-364zM432 775q-36 0 -59.5 12.5t-23.5 49.5q0 48 26 69.5t72 21.5q30 0 56 -11.5t26 -49.5q0 -41 -21 -66.5t-76 -25.5zM194 775q-36 0 -59.5 12.5t-23.5 49.5q0 48 26 69.5
t72 21.5q20 0 39 -4.5t31.5 -17.5t12.5 -39q0 -41 -21.5 -66.5t-76.5 -25.5z" />
    <glyph glyph-name="Eth" unicode="&#xd0;" horiz-adv-x="684" 
d="M16 0l58 275h-69l34 156h68l60 283h210q132 0 204 -70t72 -200q0 -138 -46 -237.5t-134.5 -153t-215.5 -53.5h-241zM241 158h34q55 0 96.5 35t65 98t23.5 149q0 56 -26.5 87t-73.5 31h-35l-27 -127h87l-34 -156h-86z" />
    <glyph glyph-name="Ntilde" unicode="&#xd1;" horiz-adv-x="790" 
d="M16 0l151 714h222l140 -480h4l7.5 55t10 67t10.5 59l64 299h170l-151 -714h-222l-141 502h-4q-1 -10 -3.5 -33.5t-6 -54t-8.5 -61.5t-10 -55l-63 -298h-170zM301 765q16 91 56 129t97 38q29 0 52 -12t44 -24t44 -12q17 0 32 12t24 37h93q-19 -92 -58.5 -129.5
t-98.5 -37.5q-31 0 -56 12t-46.5 24t-43.5 12q-15 0 -29.5 -13.5t-17.5 -35.5h-92z" />
    <glyph glyph-name="Ograve" unicode="&#xd2;" horiz-adv-x="737" 
d="M325 -10q-137 0 -205.5 75t-68.5 200q0 83 23.5 164.5t71 148.5t120.5 107t172 40q132 0 200 -75.5t68 -199.5q0 -83 -22.5 -164.5t-69.5 -148.5t-118.5 -107t-170.5 -40zM342 148q48 0 87 41t61.5 109t22.5 150q0 56 -23.5 87.5t-67.5 31.5q-40 0 -73 -26.5t-56.5 -70
t-36 -97t-12.5 -107.5q0 -118 98 -118zM441 767q-33 31 -69.5 72t-54.5 78v10h193q6 -32 17.5 -71t28.5 -77v-12h-115z" />
    <glyph glyph-name="Oacute" unicode="&#xd3;" horiz-adv-x="737" 
d="M325 -10q-137 0 -205.5 75t-68.5 200q0 83 23.5 164.5t71 148.5t120.5 107t172 40q132 0 200 -75.5t68 -199.5q0 -83 -22.5 -164.5t-69.5 -148.5t-118.5 -107t-170.5 -40zM342 148q48 0 87 41t61.5 109t22.5 150q0 56 -23.5 87.5t-67.5 31.5q-40 0 -73 -26.5t-56.5 -70
t-36 -97t-12.5 -107.5q0 -118 98 -118zM367 767v11q34 29 72 71t66 78h214v-7q-11 -13 -36.5 -34t-57.5 -43.5t-64 -43t-55 -32.5h-139z" />
    <glyph glyph-name="Ocircumflex" unicode="&#xd4;" horiz-adv-x="737" 
d="M325 -10q-137 0 -205.5 75t-68.5 200q0 83 23.5 164.5t71 148.5t120.5 107t172 40q132 0 200 -75.5t68 -199.5q0 -83 -22.5 -164.5t-69.5 -148.5t-118.5 -107t-170.5 -40zM342 148q48 0 87 41t61.5 109t22.5 150q0 56 -23.5 87.5t-67.5 31.5q-40 0 -73 -26.5t-56.5 -70
t-36 -97t-12.5 -107.5q0 -118 98 -118zM229 767v11q23 21 50.5 47.5t54.5 53t46 48.5h218q10 -22 25 -49.5t31.5 -54t31.5 -45.5v-11h-130q-11 10 -25.5 25.5t-28 32l-22.5 27.5q-28 -22 -57 -43.5t-60 -41.5h-134z" />
    <glyph glyph-name="Otilde" unicode="&#xd5;" horiz-adv-x="737" 
d="M325 -10q-137 0 -205.5 75t-68.5 200q0 83 23.5 164.5t71 148.5t120.5 107t172 40q132 0 200 -75.5t68 -199.5q0 -83 -22.5 -164.5t-69.5 -148.5t-118.5 -107t-170.5 -40zM342 148q48 0 87 41t61.5 109t22.5 150q0 56 -23.5 87.5t-67.5 31.5q-40 0 -73 -26.5t-56.5 -70
t-36 -97t-12.5 -107.5q0 -118 98 -118zM263 765q16 91 56 129t97 38q29 0 52 -12t44 -24t44 -12q17 0 32 12t24 37h93q-19 -92 -58.5 -129.5t-98.5 -37.5q-31 0 -56 12t-46.5 24t-43.5 12q-15 0 -29.5 -13.5t-17.5 -35.5h-92z" />
    <glyph glyph-name="Odieresis" unicode="&#xd6;" horiz-adv-x="737" 
d="M325 -10q-137 0 -205.5 75t-68.5 200q0 83 23.5 164.5t71 148.5t120.5 107t172 40q132 0 200 -75.5t68 -199.5q0 -83 -22.5 -164.5t-69.5 -148.5t-118.5 -107t-170.5 -40zM342 148q48 0 87 41t61.5 109t22.5 150q0 56 -23.5 87.5t-67.5 31.5q-40 0 -73 -26.5t-56.5 -70
t-36 -97t-12.5 -107.5q0 -118 98 -118zM590 775q-36 0 -59.5 12.5t-23.5 49.5q0 48 26 69.5t72 21.5q30 0 56 -11.5t26 -49.5q0 -41 -21 -66.5t-76 -25.5zM352 775q-36 0 -59.5 12.5t-23.5 49.5q0 48 26 69.5t72 21.5q20 0 39 -4.5t31.5 -17.5t12.5 -39q0 -41 -21.5 -66.5
t-76.5 -25.5z" />
    <glyph glyph-name="multiply" unicode="&#xd7;" horiz-adv-x="586" 
d="M424 576l92 -89l-134 -134l132 -133l-90 -90l-134 132l-132 -131l-88 91l129 131l-130 131l89 92l132 -130z" />
    <glyph glyph-name="Oslash" unicode="&#xd8;" horiz-adv-x="737" 
d="M124 -42l-78 57l57 71q-52 68 -52 179q0 83 23 164.5t70 148.5t118 107t167 40q47 0 85 -9.5t69 -25.5l45 56l76 -58l-48 -61q50 -70 50 -177q0 -83 -23 -164.5t-69.5 -148.5t-116 -107t-163.5 -40q-48 0 -87 9t-71 25zM245 263l227 288q-22 16 -56 16q-50 0 -88.5 -39
t-60.5 -103t-22 -138v-24zM342 148q50 0 88 37.5t60 100t22 139.5v22l-226 -285q23 -14 56 -14z" />
    <glyph glyph-name="Ugrave" unicode="&#xd9;" horiz-adv-x="701" 
d="M298 -10q-74 0 -127.5 27t-81.5 73.5t-28 106.5q0 15 1.5 32.5t4.5 33.5l97 451h191l-95 -446q-3 -14 -5 -28.5t-2 -27.5q0 -29 16 -45.5t47 -16.5q43 0 68 29t40 99l93 436h191l-97 -455q-19 -87 -55.5 -147t-99 -91t-158.5 -31zM418 767q-33 31 -69.5 72t-54.5 78v10
h193q6 -32 17.5 -71t28.5 -77v-12h-115z" />
    <glyph glyph-name="Uacute" unicode="&#xda;" horiz-adv-x="701" 
d="M298 -10q-74 0 -127.5 27t-81.5 73.5t-28 106.5q0 15 1.5 32.5t4.5 33.5l97 451h191l-95 -446q-3 -14 -5 -28.5t-2 -27.5q0 -29 16 -45.5t47 -16.5q43 0 68 29t40 99l93 436h191l-97 -455q-19 -87 -55.5 -147t-99 -91t-158.5 -31zM344 767v11q34 29 72 71t66 78h214v-7
q-11 -13 -36.5 -34t-57.5 -43.5t-64 -43t-55 -32.5h-139z" />
    <glyph glyph-name="Ucircumflex" unicode="&#xdb;" horiz-adv-x="701" 
d="M298 -10q-74 0 -127.5 27t-81.5 73.5t-28 106.5q0 15 1.5 32.5t4.5 33.5l97 451h191l-95 -446q-3 -14 -5 -28.5t-2 -27.5q0 -29 16 -45.5t47 -16.5q43 0 68 29t40 99l93 436h191l-97 -455q-19 -87 -55.5 -147t-99 -91t-158.5 -31zM206 767v11q23 21 50.5 47.5t54.5 53
t46 48.5h218q10 -22 25 -49.5t31.5 -54t31.5 -45.5v-11h-130q-11 10 -25.5 25.5t-28 32l-22.5 27.5q-28 -22 -57 -43.5t-60 -41.5h-134z" />
    <glyph glyph-name="Udieresis" unicode="&#xdc;" horiz-adv-x="701" 
d="M298 -10q-74 0 -127.5 27t-81.5 73.5t-28 106.5q0 15 1.5 32.5t4.5 33.5l97 451h191l-95 -446q-3 -14 -5 -28.5t-2 -27.5q0 -29 16 -45.5t47 -16.5q43 0 68 29t40 99l93 436h191l-97 -455q-19 -87 -55.5 -147t-99 -91t-158.5 -31zM567 775q-36 0 -59.5 12.5t-23.5 49.5
q0 48 26 69.5t72 21.5q30 0 56 -11.5t26 -49.5q0 -41 -21 -66.5t-76 -25.5zM329 775q-36 0 -59.5 12.5t-23.5 49.5q0 48 26 69.5t72 21.5q20 0 39 -4.5t31.5 -17.5t12.5 -39q0 -41 -21.5 -66.5t-76.5 -25.5z" />
    <glyph glyph-name="Yacute" unicode="&#xdd;" horiz-adv-x="604" 
d="M137 0l59 277l-116 437h197l44 -265l152 265h213l-299 -437l-59 -277h-191zM283 767v11q34 29 72 71t66 78h214v-7q-11 -13 -36.5 -34t-57.5 -43.5t-64 -43t-55 -32.5h-139z" />
    <glyph glyph-name="Thorn" unicode="&#xde;" horiz-adv-x="623" 
d="M16 0l151 714h191l-21 -104h12q88 0 141 -29t76.5 -77.5t23.5 -107.5q0 -86 -39.5 -144t-110 -88t-163.5 -30h-42l-28 -134h-191zM269 290h31q46 0 72.5 24t26.5 76q0 26 -19 45.5t-54 19.5h-22z" />
    <glyph glyph-name="germandbls" unicode="&#xdf;" horiz-adv-x="713" 
d="M-26 -240q-26 0 -55 4t-46 9v148q13 -4 28 -6.5t29 -2.5q36 0 54.5 15t25.5 46l119 562q15 73 49.5 124.5t95.5 78.5t157 27q127 0 189.5 -51.5t62.5 -130.5q0 -61 -26 -98.5t-78 -62.5q-41 -20 -49 -32t-8 -18q0 -17 12 -27t31 -19.5t41 -25.5q28 -20 43.5 -49t15.5 -69
q0 -48 -23.5 -92t-77.5 -72t-143 -28q-47 0 -78 6t-56 16v146q26 -13 64 -21.5t68 -8.5q29 0 42.5 11t13.5 24q0 11 -4 19t-18 19t-43 29q-50 32 -65.5 60.5t-15.5 57.5q0 52 25 79t76 56q34 19 48.5 37t14.5 39q0 20 -15.5 39t-61.5 19q-38 0 -64.5 -24.5t-36.5 -71.5
l-123 -578q-12 -53 -37 -94.5t-69 -65t-112 -23.5z" />
    <glyph glyph-name="agrave" unicode="&#xe0;" horiz-adv-x="607" 
d="M198 -10q-42 0 -78 20t-57.5 66t-21.5 125q0 40 9.5 89t28.5 97t48.5 88t69.5 64t90 24q47 0 77.5 -21.5t50.5 -56.5h4l26 68h151l-117 -553h-151l5 60h-4q-22 -31 -52 -50.5t-79 -19.5zM276 142q22 0 39.5 19.5t30.5 51t19 67.5q6 30 6 61t-10 50.5t-30 19.5
q-26 0 -48 -30t-35.5 -75.5t-13.5 -93.5q0 -70 42 -70zM347 606q-33 31 -69.5 72t-54.5 78v10h193q6 -32 17.5 -71t28.5 -77v-12h-115z" />
    <glyph glyph-name="aacute" unicode="&#xe1;" horiz-adv-x="607" 
d="M198 -10q-42 0 -78 20t-57.5 66t-21.5 125q0 40 9.5 89t28.5 97t48.5 88t69.5 64t90 24q47 0 77.5 -21.5t50.5 -56.5h4l26 68h151l-117 -553h-151l5 60h-4q-22 -31 -52 -50.5t-79 -19.5zM276 142q22 0 39.5 19.5t30.5 51t19 67.5q6 30 6 61t-10 50.5t-30 19.5
q-26 0 -48 -30t-35.5 -75.5t-13.5 -93.5q0 -70 42 -70zM273 606v11q34 29 72 71t66 78h214v-7q-11 -13 -36.5 -34t-57.5 -43.5t-64 -43t-55 -32.5h-139z" />
    <glyph glyph-name="acircumflex" unicode="&#xe2;" horiz-adv-x="607" 
d="M198 -10q-42 0 -78 20t-57.5 66t-21.5 125q0 40 9.5 89t28.5 97t48.5 88t69.5 64t90 24q47 0 77.5 -21.5t50.5 -56.5h4l26 68h151l-117 -553h-151l5 60h-4q-22 -31 -52 -50.5t-79 -19.5zM276 142q22 0 39.5 19.5t30.5 51t19 67.5q6 30 6 61t-10 50.5t-30 19.5
q-26 0 -48 -30t-35.5 -75.5t-13.5 -93.5q0 -70 42 -70zM135 606v11q23 21 50.5 47.5t54.5 53t46 48.5h218q10 -22 25 -49.5t31.5 -54t31.5 -45.5v-11h-130q-11 10 -25.5 25.5t-28 32l-22.5 27.5q-28 -22 -57 -43.5t-60 -41.5h-134z" />
    <glyph glyph-name="atilde" unicode="&#xe3;" horiz-adv-x="607" 
d="M198 -10q-42 0 -78 20t-57.5 66t-21.5 125q0 40 9.5 89t28.5 97t48.5 88t69.5 64t90 24q47 0 77.5 -21.5t50.5 -56.5h4l26 68h151l-117 -553h-151l5 60h-4q-22 -31 -52 -50.5t-79 -19.5zM276 142q22 0 39.5 19.5t30.5 51t19 67.5q6 30 6 61t-10 50.5t-30 19.5
q-26 0 -48 -30t-35.5 -75.5t-13.5 -93.5q0 -70 42 -70zM169 604q16 91 56 129t97 38q29 0 52 -12t44 -24t44 -12q17 0 32 12t24 37h93q-19 -92 -58.5 -129.5t-98.5 -37.5q-31 0 -56 12t-46.5 24t-43.5 12q-15 0 -29.5 -13.5t-17.5 -35.5h-92z" />
    <glyph glyph-name="adieresis" unicode="&#xe4;" horiz-adv-x="607" 
d="M198 -10q-42 0 -78 20t-57.5 66t-21.5 125q0 40 9.5 89t28.5 97t48.5 88t69.5 64t90 24q47 0 77.5 -21.5t50.5 -56.5h4l26 68h151l-117 -553h-151l5 60h-4q-22 -31 -52 -50.5t-79 -19.5zM276 142q22 0 39.5 19.5t30.5 51t19 67.5q6 30 6 61t-10 50.5t-30 19.5
q-26 0 -48 -30t-35.5 -75.5t-13.5 -93.5q0 -70 42 -70zM496 614q-36 0 -59.5 12.5t-23.5 49.5q0 48 26 69.5t72 21.5q30 0 56 -11.5t26 -49.5q0 -41 -21 -66.5t-76 -25.5zM258 614q-36 0 -59.5 12.5t-23.5 49.5q0 48 26 69.5t72 21.5q20 0 39 -4.5t31.5 -17.5t12.5 -39
q0 -41 -21.5 -66.5t-76.5 -25.5z" />
    <glyph glyph-name="aring" unicode="&#xe5;" horiz-adv-x="607" 
d="M198 -10q-42 0 -78 20t-57.5 66t-21.5 125q0 40 9.5 89t28.5 97t48.5 88t69.5 64t90 24q47 0 77.5 -21.5t50.5 -56.5h4l26 68h151l-117 -553h-151l5 60h-4q-22 -31 -52 -50.5t-79 -19.5zM276 142q22 0 39.5 19.5t30.5 51t19 67.5q6 30 6 61t-10 50.5t-30 19.5
q-26 0 -48 -30t-35.5 -75.5t-13.5 -93.5q0 -70 42 -70zM379 604q-58 0 -94.5 33t-36.5 90q0 58 36.5 91t94.5 33q55 0 93 -33t38 -90q0 -58 -37.5 -91t-93.5 -33zM379 686q17 0 30 11.5t13 29.5q0 19 -13 30.5t-30 11.5t-30 -11.5t-13 -30.5q0 -18 11.5 -29.5t31.5 -11.5z
" />
    <glyph glyph-name="ae" unicode="&#xe6;" horiz-adv-x="873" 
d="M198 -10q-42 0 -78 20t-57.5 66t-21.5 125q0 40 9.5 89t28.5 97t48.5 88t69.5 64t90 24q47 0 76 -20t52 -58h4l26 68h101v-46q23 23 59 39.5t77 16.5q76 0 122.5 -42t46.5 -112q0 -91 -71.5 -147t-225.5 -56h-29v-8q0 -72 80 -72q42 0 79.5 13t80.5 35v-134
q-38 -22 -79 -36t-104 -14q-87 0 -128 55l-15 -45h-111l5 60h-4q-22 -31 -52 -50.5t-79 -19.5zM544 324h14q64 0 89 24t25 50q0 16 -10 26.5t-31 10.5q-22 0 -40.5 -17t-30.5 -42.5t-16 -51.5zM276 142q22 0 39.5 19.5t30.5 51t19 67.5q3 15 4 30.5t1 30.5q0 31 -11.5 50.5
t-31.5 19.5q-26 0 -47 -30t-33.5 -75.5t-12.5 -93.5q0 -70 42 -70z" />
    <glyph glyph-name="ccedilla" unicode="&#xe7;" horiz-adv-x="504" 
d="M247 -10q-56 0 -103 23t-75 73t-28 130q0 98 36.5 176.5t103 124.5t156.5 46q52 0 94.5 -9.5t84.5 -29.5l-60 -140q-25 11 -54 20t-56 9q-29 0 -51 -18.5t-36 -47t-21 -60.5t-7 -59q0 -49 16.5 -67.5t44.5 -18.5q35 0 68 11t70 31v-150q-39 -21 -82 -32.5t-101 -11.5z
M188 -240q-30 0 -53 3.5t-41 10.5v100q16 -5 40.5 -9t33.5 -4q33 0 33 24q0 13 -13 26.5t-58 22.5l37 66h100l-12 -20q38 -8 62.5 -30t24.5 -65q0 -59 -40 -92t-114 -33z" />
    <glyph glyph-name="egrave" unicode="&#xe8;" horiz-adv-x="579" 
d="M260 -10q-105 0 -162 58.5t-57 160.5q0 68 19.5 131.5t58.5 113.5t98.5 79.5t140.5 29.5q93 0 146 -42t53 -112q0 -91 -71.5 -147t-225.5 -56h-29v-8q0 -72 80 -72q42 0 79.5 13t80.5 35v-134q-44 -22 -91.5 -36t-119.5 -14zM250 324h14q64 0 89 24t25 50q0 16 -10 26.5
t-31 10.5q-22 0 -40.5 -17t-30.5 -42.5t-16 -51.5zM338 606q-33 31 -69.5 72t-54.5 78v10h193q6 -32 17.5 -71t28.5 -77v-12h-115z" />
    <glyph glyph-name="eacute" unicode="&#xe9;" horiz-adv-x="579" 
d="M260 -10q-105 0 -162 58.5t-57 160.5q0 68 19.5 131.5t58.5 113.5t98.5 79.5t140.5 29.5q93 0 146 -42t53 -112q0 -91 -71.5 -147t-225.5 -56h-29v-8q0 -72 80 -72q42 0 79.5 13t80.5 35v-134q-44 -22 -91.5 -36t-119.5 -14zM250 324h14q64 0 89 24t25 50q0 16 -10 26.5
t-31 10.5q-22 0 -40.5 -17t-30.5 -42.5t-16 -51.5zM264 606v11q34 29 72 71t66 78h214v-7q-11 -13 -36.5 -34t-57.5 -43.5t-64 -43t-55 -32.5h-139z" />
    <glyph glyph-name="ecircumflex" unicode="&#xea;" horiz-adv-x="579" 
d="M260 -10q-105 0 -162 58.5t-57 160.5q0 68 19.5 131.5t58.5 113.5t98.5 79.5t140.5 29.5q93 0 146 -42t53 -112q0 -91 -71.5 -147t-225.5 -56h-29v-8q0 -72 80 -72q42 0 79.5 13t80.5 35v-134q-44 -22 -91.5 -36t-119.5 -14zM250 324h14q64 0 89 24t25 50q0 16 -10 26.5
t-31 10.5q-22 0 -40.5 -17t-30.5 -42.5t-16 -51.5zM126 606v11q23 21 50.5 47.5t54.5 53t46 48.5h218q10 -22 25 -49.5t31.5 -54t31.5 -45.5v-11h-130q-11 10 -25.5 25.5t-28 32l-22.5 27.5q-28 -22 -57 -43.5t-60 -41.5h-134z" />
    <glyph glyph-name="edieresis" unicode="&#xeb;" horiz-adv-x="579" 
d="M260 -10q-105 0 -162 58.5t-57 160.5q0 68 19.5 131.5t58.5 113.5t98.5 79.5t140.5 29.5q93 0 146 -42t53 -112q0 -91 -71.5 -147t-225.5 -56h-29v-8q0 -72 80 -72q42 0 79.5 13t80.5 35v-134q-44 -22 -91.5 -36t-119.5 -14zM250 324h14q64 0 89 24t25 50q0 16 -10 26.5
t-31 10.5q-22 0 -40.5 -17t-30.5 -42.5t-16 -51.5zM487 614q-36 0 -59.5 12.5t-23.5 49.5q0 48 26 69.5t72 21.5q30 0 56 -11.5t26 -49.5q0 -41 -21 -66.5t-76 -25.5zM249 614q-36 0 -59.5 12.5t-23.5 49.5q0 48 26 69.5t72 21.5q20 0 39 -4.5t31.5 -17.5t12.5 -39
q0 -41 -21.5 -66.5t-76.5 -25.5z" />
    <glyph glyph-name="igrave" unicode="&#xec;" horiz-adv-x="325" 
d="M11 0l117 553h190l-118 -553h-189zM208 606q-33 31 -69.5 72t-54.5 78v10h193q6 -32 17.5 -71t28.5 -77v-12h-115z" />
    <glyph glyph-name="iacute" unicode="&#xed;" horiz-adv-x="325" 
d="M11 0l117 553h190l-118 -553h-189zM134 606v11q34 29 72 71t66 78h214v-7q-11 -13 -36.5 -34t-57.5 -43.5t-64 -43t-55 -32.5h-139z" />
    <glyph glyph-name="icircumflex" unicode="&#xee;" horiz-adv-x="325" 
d="M11 0l117 553h190l-118 -553h-189zM-4 606v11q23 21 50.5 47.5t54.5 53t46 48.5h218q10 -22 25 -49.5t31.5 -54t31.5 -45.5v-11h-130q-11 10 -25.5 25.5t-28 32l-22.5 27.5q-28 -22 -57 -43.5t-60 -41.5h-134z" />
    <glyph glyph-name="idieresis" unicode="&#xef;" horiz-adv-x="325" 
d="M11 0l117 553h190l-118 -553h-189zM357 614q-36 0 -59.5 12.5t-23.5 49.5q0 48 26 69.5t72 21.5q30 0 56 -11.5t26 -49.5q0 -41 -21 -66.5t-76 -25.5zM119 614q-36 0 -59.5 12.5t-23.5 49.5q0 48 26 69.5t72 21.5q20 0 39 -4.5t31.5 -17.5t12.5 -39q0 -41 -21.5 -66.5
t-76.5 -25.5z" />
    <glyph glyph-name="eth" unicode="&#xf0;" horiz-adv-x="564" 
d="M254 -10q-98 0 -155.5 58t-57.5 160q0 80 29 145t84.5 103.5t134.5 38.5q37 0 61 -13t38 -30l5 2q-4 29 -15 61.5t-29 58.5l-133 -62l-40 82l107 50q-11 10 -23 19t-23 17l56 88q31 -14 59 -30.5t54 -36.5l116 54l40 -81l-90 -44q24 -30 41 -76t26.5 -99t9.5 -105
q0 -76 -15.5 -141.5t-50.5 -114.5t-91.5 -76.5t-137.5 -27.5zM271 127q23 0 40 15.5t27.5 39.5t15.5 50t5 47q0 37 -9.5 58t-31.5 21q-24 0 -41 -16.5t-27 -42t-15 -52.5t-5 -48q0 -72 41 -72z" />
    <glyph glyph-name="ntilde" unicode="&#xf1;" horiz-adv-x="622" 
d="M11 0l117 553h151l-6 -77h4q27 46 63 66.5t89 20.5q51 0 83.5 -21.5t47.5 -57.5t15 -78q0 -28 -3.5 -57t-8.5 -55l-62 -294h-189l63 302q3 13 6 32.5t3 36.5q0 21 -11 31.5t-26 10.5q-28 0 -51.5 -34.5t-38.5 -108.5l-57 -270h-189zM184 604q16 91 56 129t97 38
q29 0 52 -12t44 -24t44 -12q17 0 32 12t24 37h93q-19 -92 -58.5 -129.5t-98.5 -37.5q-31 0 -56 12t-46.5 24t-43.5 12q-15 0 -29.5 -13.5t-17.5 -35.5h-92z" />
    <glyph glyph-name="ograve" unicode="&#xf2;" horiz-adv-x="607" 
d="M254 -10q-102 0 -157.5 55.5t-55.5 157.5q0 71 20 135.5t59 115t97.5 80t135.5 29.5q102 0 157.5 -55.5t55.5 -157.5q0 -71 -20 -135.5t-59 -115t-97.5 -80t-135.5 -29.5zM275 132q28 0 50 33.5t35 85t13 105.5q0 65 -42 65q-28 0 -50 -33.5t-34.5 -84.5t-12.5 -106
q0 -65 41 -65zM344 606q-33 31 -69.5 72t-54.5 78v10h193q6 -32 17.5 -71t28.5 -77v-12h-115z" />
    <glyph glyph-name="oacute" unicode="&#xf3;" horiz-adv-x="607" 
d="M254 -10q-102 0 -157.5 55.5t-55.5 157.5q0 71 20 135.5t59 115t97.5 80t135.5 29.5q102 0 157.5 -55.5t55.5 -157.5q0 -71 -20 -135.5t-59 -115t-97.5 -80t-135.5 -29.5zM275 132q28 0 50 33.5t35 85t13 105.5q0 65 -42 65q-28 0 -50 -33.5t-34.5 -84.5t-12.5 -106
q0 -65 41 -65zM270 606v11q34 29 72 71t66 78h214v-7q-11 -13 -36.5 -34t-57.5 -43.5t-64 -43t-55 -32.5h-139z" />
    <glyph glyph-name="ocircumflex" unicode="&#xf4;" horiz-adv-x="607" 
d="M254 -10q-102 0 -157.5 55.5t-55.5 157.5q0 71 20 135.5t59 115t97.5 80t135.5 29.5q102 0 157.5 -55.5t55.5 -157.5q0 -71 -20 -135.5t-59 -115t-97.5 -80t-135.5 -29.5zM275 132q28 0 50 33.5t35 85t13 105.5q0 65 -42 65q-28 0 -50 -33.5t-34.5 -84.5t-12.5 -106
q0 -65 41 -65zM132 606v11q23 21 50.5 47.5t54.5 53t46 48.5h218q10 -22 25 -49.5t31.5 -54t31.5 -45.5v-11h-130q-11 10 -25.5 25.5t-28 32l-22.5 27.5q-28 -22 -57 -43.5t-60 -41.5h-134z" />
    <glyph glyph-name="otilde" unicode="&#xf5;" horiz-adv-x="607" 
d="M254 -10q-102 0 -157.5 55.5t-55.5 157.5q0 71 20 135.5t59 115t97.5 80t135.5 29.5q102 0 157.5 -55.5t55.5 -157.5q0 -71 -20 -135.5t-59 -115t-97.5 -80t-135.5 -29.5zM275 132q28 0 50 33.5t35 85t13 105.5q0 65 -42 65q-28 0 -50 -33.5t-34.5 -84.5t-12.5 -106
q0 -65 41 -65zM166 604q16 91 56 129t97 38q29 0 52 -12t44 -24t44 -12q17 0 32 12t24 37h93q-19 -92 -58.5 -129.5t-98.5 -37.5q-31 0 -56 12t-46.5 24t-43.5 12q-15 0 -29.5 -13.5t-17.5 -35.5h-92z" />
    <glyph glyph-name="odieresis" unicode="&#xf6;" horiz-adv-x="607" 
d="M254 -10q-102 0 -157.5 55.5t-55.5 157.5q0 71 20 135.5t59 115t97.5 80t135.5 29.5q102 0 157.5 -55.5t55.5 -157.5q0 -71 -20 -135.5t-59 -115t-97.5 -80t-135.5 -29.5zM275 132q28 0 50 33.5t35 85t13 105.5q0 65 -42 65q-28 0 -50 -33.5t-34.5 -84.5t-12.5 -106
q0 -65 41 -65zM493 614q-36 0 -59.5 12.5t-23.5 49.5q0 48 26 69.5t72 21.5q30 0 56 -11.5t26 -49.5q0 -41 -21 -66.5t-76 -25.5zM255 614q-36 0 -59.5 12.5t-23.5 49.5q0 48 26 69.5t72 21.5q20 0 39 -4.5t31.5 -17.5t12.5 -39q0 -41 -21.5 -66.5t-76.5 -25.5z" />
    <glyph glyph-name="divide" unicode="&#xf7;" horiz-adv-x="586" 
d="M292 460q-31 0 -53.5 20t-22.5 63q0 47 22.5 65t53.5 18q30 0 53.5 -18t23.5 -65q0 -43 -23.5 -63t-53.5 -20zM45 287v131h495v-131h-495zM292 79q-31 0 -53.5 19.5t-22.5 63.5q0 46 22.5 64.5t53.5 18.5q30 0 53.5 -18.5t23.5 -64.5q0 -44 -23.5 -63.5t-53.5 -19.5z" />
    <glyph glyph-name="oslash" unicode="&#xf8;" horiz-adv-x="628" 
d="M94 -54l-62 53l55 64q-22 27 -34 61.5t-12 78.5q0 71 20.5 135.5t61.5 115t101 80t139 29.5q37 0 67 -7.5t55 -20.5l51 59l62 -53l-51 -60q19 -25 29.5 -58t10.5 -73q0 -71 -20.5 -135.5t-61 -115t-100 -80t-137.5 -29.5q-34 0 -63 7t-53 17zM219 220l164 194
q-17 14 -40 14q-44 0 -80.5 -50t-42.5 -139q-1 -5 -1 -9.5v-9.5zM288 127q43 0 77 39.5t42 129.5q0 5 0.5 10.5t0.5 10.5l-155 -183q14 -7 35 -7z" />
    <glyph glyph-name="ugrave" unicode="&#xf9;" horiz-adv-x="622" 
d="M193 -10q-51 0 -83.5 21.5t-47.5 57t-15 78.5q0 28 3.5 57t8.5 55l62 294h189l-63 -301q-3 -13 -6 -32.5t-3 -36.5q0 -21 11 -31.5t26 -10.5q25 0 49.5 34.5t40.5 108.5l57 269h189l-117 -553h-151l6 77h-4q-27 -47 -63 -67t-89 -20zM349 606q-33 31 -69.5 72t-54.5 78
v10h193q6 -32 17.5 -71t28.5 -77v-12h-115z" />
    <glyph glyph-name="uacute" unicode="&#xfa;" horiz-adv-x="622" 
d="M193 -10q-51 0 -83.5 21.5t-47.5 57t-15 78.5q0 28 3.5 57t8.5 55l62 294h189l-63 -301q-3 -13 -6 -32.5t-3 -36.5q0 -21 11 -31.5t26 -10.5q25 0 49.5 34.5t40.5 108.5l57 269h189l-117 -553h-151l6 77h-4q-27 -47 -63 -67t-89 -20zM275 606v11q34 29 72 71t66 78h214
v-7q-11 -13 -36.5 -34t-57.5 -43.5t-64 -43t-55 -32.5h-139z" />
    <glyph glyph-name="ucircumflex" unicode="&#xfb;" horiz-adv-x="622" 
d="M193 -10q-51 0 -83.5 21.5t-47.5 57t-15 78.5q0 28 3.5 57t8.5 55l62 294h189l-63 -301q-3 -13 -6 -32.5t-3 -36.5q0 -21 11 -31.5t26 -10.5q25 0 49.5 34.5t40.5 108.5l57 269h189l-117 -553h-151l6 77h-4q-27 -47 -63 -67t-89 -20zM137 606v11q23 21 50.5 47.5t54.5 53
t46 48.5h218q10 -22 25 -49.5t31.5 -54t31.5 -45.5v-11h-130q-11 10 -25.5 25.5t-28 32l-22.5 27.5q-28 -22 -57 -43.5t-60 -41.5h-134z" />
    <glyph glyph-name="udieresis" unicode="&#xfc;" horiz-adv-x="622" 
d="M193 -10q-51 0 -83.5 21.5t-47.5 57t-15 78.5q0 28 3.5 57t8.5 55l62 294h189l-63 -301q-3 -13 -6 -32.5t-3 -36.5q0 -21 11 -31.5t26 -10.5q25 0 49.5 34.5t40.5 108.5l57 269h189l-117 -553h-151l6 77h-4q-27 -47 -63 -67t-89 -20zM498 614q-36 0 -59.5 12.5
t-23.5 49.5q0 48 26 69.5t72 21.5q30 0 56 -11.5t26 -49.5q0 -41 -21 -66.5t-76 -25.5zM260 614q-36 0 -59.5 12.5t-23.5 49.5q0 48 26 69.5t72 21.5q20 0 39 -4.5t31.5 -17.5t12.5 -39q0 -41 -21.5 -66.5t-76.5 -25.5z" />
    <glyph glyph-name="yacute" unicode="&#xfd;" horiz-adv-x="544" 
d="M12 -240q-28 0 -46 2.5t-29 5.5v150q9 -2 23 -4t30 -2q44 0 70.5 18t47.5 56l11 20l-79 547h190l19 -254q2 -25 2 -48t-1 -45h4q7 22 16.5 49.5t17.5 45.5l109 252h203l-327 -623q-45 -86 -106 -128t-155 -42zM226 606v11q34 29 72 71t66 78h214v-7q-11 -13 -36.5 -34
t-57.5 -43.5t-64 -43t-55 -32.5h-139z" />
    <glyph glyph-name="thorn" unicode="&#xfe;" horiz-adv-x="607" 
d="M-40 -240l212 1000h189l-24 -113q-9 -41 -19 -74.5t-17.5 -53l-7.5 -19.5h4q21 28 47 45.5t64 17.5q72 0 115 -53.5t43 -150.5q0 -69 -17.5 -134.5t-49.5 -118.5t-78 -84.5t-103 -31.5q-38 0 -66 19.5t-47 51.5h-4q-3 -39 -8 -78t-19 -103l-25 -120h-189zM280 142
q26 0 47 30t33.5 76t12.5 93q0 70 -42 70q-21 0 -39 -19.5t-31 -51.5t-19 -67q-3 -15 -4 -30.5t-1 -30.5q0 -32 11.5 -51t31.5 -19z" />
    <glyph glyph-name="ydieresis" unicode="&#xff;" horiz-adv-x="544" 
d="M12 -240q-28 0 -46 2.5t-29 5.5v150q9 -2 23 -4t30 -2q44 0 70.5 18t47.5 56l11 20l-79 547h190l19 -254q2 -25 2 -48t-1 -45h4q7 22 16.5 49.5t17.5 45.5l109 252h203l-327 -623q-45 -86 -106 -128t-155 -42zM449 614q-36 0 -59.5 12.5t-23.5 49.5q0 48 26 69.5t72 21.5
q30 0 56 -11.5t26 -49.5q0 -41 -21 -66.5t-76 -25.5zM211 614q-36 0 -59.5 12.5t-23.5 49.5q0 48 26 69.5t72 21.5q20 0 39 -4.5t31.5 -17.5t12.5 -39q0 -41 -21.5 -66.5t-76.5 -25.5z" />
    <glyph glyph-name="Amacron" unicode="&#x100;" horiz-adv-x="676" 
d="M-59 0l363 714h246l60 -714h-186l-5 134h-219l-61 -134h-198zM270 286h143l-7 205q-1 24 -1.5 47.5t0.5 44.5h-3q-15 -45 -35 -88zM272 767l25 115h325l-24 -115h-326z" />
    <glyph glyph-name="amacron" unicode="&#x101;" horiz-adv-x="607" 
d="M198 -10q-42 0 -78 20t-57.5 66t-21.5 125q0 40 9.5 89t28.5 97t48.5 88t69.5 64t90 24q47 0 77.5 -21.5t50.5 -56.5h4l26 68h151l-117 -553h-151l5 60h-4q-22 -31 -52 -50.5t-79 -19.5zM276 142q22 0 39.5 19.5t30.5 51t19 67.5q6 30 6 61t-10 50.5t-30 19.5
q-26 0 -48 -30t-35.5 -75.5t-13.5 -93.5q0 -70 42 -70zM202 606l25 115h325l-24 -115h-326z" />
    <glyph glyph-name="Abreve" unicode="&#x102;" horiz-adv-x="676" 
d="M-59 0l363 714h246l60 -714h-186l-5 134h-219l-61 -134h-198zM270 286h143l-7 205q-1 24 -1.5 47.5t0.5 44.5h-3q-15 -45 -35 -88zM438 767q-84 0 -129 42t-45 112q0 17 4 27h106q0 -31 22 -47t58 -16q31 0 58 12t40 51h108q-15 -89 -68 -135t-154 -46z" />
    <glyph glyph-name="abreve" unicode="&#x103;" horiz-adv-x="607" 
d="M198 -10q-42 0 -78 20t-57.5 66t-21.5 125q0 40 9.5 89t28.5 97t48.5 88t69.5 64t90 24q47 0 77.5 -21.5t50.5 -56.5h4l26 68h151l-117 -553h-151l5 60h-4q-22 -31 -52 -50.5t-79 -19.5zM276 142q22 0 39.5 19.5t30.5 51t19 67.5q6 30 6 61t-10 50.5t-30 19.5
q-26 0 -48 -30t-35.5 -75.5t-13.5 -93.5q0 -70 42 -70zM368 606q-84 0 -129 42t-45 112q0 17 4 27h106q0 -31 22 -47t58 -16q31 0 58 12t40 51h108q-15 -89 -68 -135t-154 -46z" />
    <glyph glyph-name="Aogonek" unicode="&#x104;" horiz-adv-x="676" 
d="M-59 0l363 714h246l60 -714h-186l-5 134h-219l-61 -134h-198zM270 286h143l-7 205q-1 24 -1.5 47.5t0.5 44.5h-3q-15 -45 -35 -88zM441 -256q-59 0 -90.5 31t-31.5 74q0 50 30 85.5t76 65.5h123q-39 -32 -66 -59.5t-27 -60.5q0 -10 6.5 -17.5t19.5 -7.5q16 0 29 3.5
t28 8.5v-108q-22 -7 -43.5 -11t-53.5 -4z" />
    <glyph glyph-name="aogonek" unicode="&#x105;" horiz-adv-x="607" 
d="M198 -10q-42 0 -78 20t-57.5 66t-21.5 125q0 40 9.5 89t28.5 97t48.5 88t69.5 64t90 24q47 0 77.5 -21.5t50.5 -56.5h4l26 68h151l-117 -553h-151l5 60h-4q-22 -31 -52 -50.5t-79 -19.5zM276 142q22 0 39.5 19.5t30.5 51t19 67.5q6 30 6 61t-10 50.5t-30 19.5
q-26 0 -48 -30t-35.5 -75.5t-13.5 -93.5q0 -70 42 -70zM344 -256q-59 0 -90.5 31t-31.5 74q0 50 30 85.5t76 65.5h123q-39 -32 -66 -59.5t-27 -60.5q0 -10 6.5 -17.5t19.5 -7.5q16 0 29 3.5t28 8.5v-108q-22 -7 -43.5 -11t-53.5 -4z" />
    <glyph glyph-name="Cacute" unicode="&#x106;" horiz-adv-x="630" 
d="M315 -10q-89 0 -148 35t-87.5 97.5t-28.5 145.5q0 64 14 129t42.5 124t73.5 105t107 72.5t142 26.5q71 0 128 -17t107 -47l-72 -149q-46 27 -84 40.5t-79 13.5q-44 0 -78 -24t-58.5 -65t-37 -92.5t-12.5 -106.5q0 -65 27.5 -97.5t78.5 -32.5q44 0 85.5 11t94.5 33v-158
q-52 -23 -106 -33.5t-109 -10.5zM342 767v11q34 29 72 71t66 78h214v-7q-11 -13 -36.5 -34t-57.5 -43.5t-64 -43t-55 -32.5h-139z" />
    <glyph glyph-name="cacute" unicode="&#x107;" horiz-adv-x="504" 
d="M247 -10q-56 0 -103 23t-75 73t-28 130q0 98 36.5 176.5t103 124.5t156.5 46q52 0 94.5 -9.5t84.5 -29.5l-60 -140q-25 11 -54 20t-56 9q-29 0 -51 -18.5t-36 -47t-21 -60.5t-7 -59q0 -49 16.5 -67.5t44.5 -18.5q35 0 68 11t70 31v-150q-39 -21 -82 -32.5t-101 -11.5z
M234 606v11q34 29 72 71t66 78h214v-7q-11 -13 -36.5 -34t-57.5 -43.5t-64 -43t-55 -32.5h-139z" />
    <glyph glyph-name="Ccircumflex" unicode="&#x108;" horiz-adv-x="630" 
d="M315 -10q-89 0 -148 35t-87.5 97.5t-28.5 145.5q0 64 14 129t42.5 124t73.5 105t107 72.5t142 26.5q71 0 128 -17t107 -47l-72 -149q-46 27 -84 40.5t-79 13.5q-44 0 -78 -24t-58.5 -65t-37 -92.5t-12.5 -106.5q0 -65 27.5 -97.5t78.5 -32.5q44 0 85.5 11t94.5 33v-158
q-52 -23 -106 -33.5t-109 -10.5zM204 767v11q23 21 50.5 47.5t54.5 53t46 48.5h218q10 -22 25 -49.5t31.5 -54t31.5 -45.5v-11h-130q-11 10 -25.5 25.5t-28 32l-22.5 27.5q-28 -22 -57 -43.5t-60 -41.5h-134z" />
    <glyph glyph-name="ccircumflex" unicode="&#x109;" horiz-adv-x="504" 
d="M247 -10q-56 0 -103 23t-75 73t-28 130q0 98 36.5 176.5t103 124.5t156.5 46q52 0 94.5 -9.5t84.5 -29.5l-60 -140q-25 11 -54 20t-56 9q-29 0 -51 -18.5t-36 -47t-21 -60.5t-7 -59q0 -49 16.5 -67.5t44.5 -18.5q35 0 68 11t70 31v-150q-39 -21 -82 -32.5t-101 -11.5z
M96 606v11q23 21 50.5 47.5t54.5 53t46 48.5h218q10 -22 25 -49.5t31.5 -54t31.5 -45.5v-11h-130q-11 10 -25.5 25.5t-28 32l-22.5 27.5q-28 -22 -57 -43.5t-60 -41.5h-134z" />
    <glyph glyph-name="Cdot" unicode="&#x10a;" horiz-adv-x="630" 
d="M315 -10q-89 0 -148 35t-87.5 97.5t-28.5 145.5q0 64 14 129t42.5 124t73.5 105t107 72.5t142 26.5q71 0 128 -17t107 -47l-72 -149q-46 27 -84 40.5t-79 13.5q-44 0 -78 -24t-58.5 -65t-37 -92.5t-12.5 -106.5q0 -65 27.5 -97.5t78.5 -32.5q44 0 85.5 11t94.5 33v-158
q-52 -23 -106 -33.5t-109 -10.5zM444 767q-40 0 -66.5 14t-26.5 55q0 54 29 78t82 24q23 0 44 -5.5t35 -20.5t14 -43q0 -45 -24.5 -73.5t-86.5 -28.5z" />
    <glyph glyph-name="cdot" unicode="&#x10b;" horiz-adv-x="504" 
d="M247 -10q-56 0 -103 23t-75 73t-28 130q0 98 36.5 176.5t103 124.5t156.5 46q52 0 94.5 -9.5t84.5 -29.5l-60 -140q-25 11 -54 20t-56 9q-29 0 -51 -18.5t-36 -47t-21 -60.5t-7 -59q0 -49 16.5 -67.5t44.5 -18.5q35 0 68 11t70 31v-150q-39 -21 -82 -32.5t-101 -11.5z
M336 606q-40 0 -66.5 14t-26.5 55q0 54 29 78t82 24q23 0 44 -5.5t35 -20.5t14 -43q0 -45 -24.5 -73.5t-86.5 -28.5z" />
    <glyph glyph-name="Ccaron" unicode="&#x10c;" horiz-adv-x="630" 
d="M315 -10q-89 0 -148 35t-87.5 97.5t-28.5 145.5q0 64 14 129t42.5 124t73.5 105t107 72.5t142 26.5q71 0 128 -17t107 -47l-72 -149q-46 27 -84 40.5t-79 13.5q-44 0 -78 -24t-58.5 -65t-37 -92.5t-12.5 -106.5q0 -65 27.5 -97.5t78.5 -32.5q44 0 85.5 11t94.5 33v-158
q-52 -23 -106 -33.5t-109 -10.5zM330 767q-10 22 -25 49.5t-31.5 54t-31.5 45.5v11h130q11 -10 25.5 -25.5t28 -32l22.5 -27.5q28 22 57 43.5t60 41.5h134v-11q-25 -21 -52.5 -47.5t-53 -53t-45.5 -48.5h-218z" />
    <glyph glyph-name="ccaron" unicode="&#x10d;" horiz-adv-x="504" 
d="M247 -10q-56 0 -103 23t-75 73t-28 130q0 98 36.5 176.5t103 124.5t156.5 46q52 0 94.5 -9.5t84.5 -29.5l-60 -140q-25 11 -54 20t-56 9q-29 0 -51 -18.5t-36 -47t-21 -60.5t-7 -59q0 -49 16.5 -67.5t44.5 -18.5q35 0 68 11t70 31v-150q-39 -21 -82 -32.5t-101 -11.5z
M222 606q-10 22 -25 49.5t-31.5 54t-31.5 45.5v11h130q11 -10 25.5 -25.5t28 -32l22.5 -27.5q28 22 57 43.5t60 41.5h134v-11q-25 -21 -52.5 -47.5t-53 -53t-45.5 -48.5h-218z" />
    <glyph glyph-name="Dcaron" unicode="&#x10e;" horiz-adv-x="684" 
d="M16 0l151 714h203q131 0 207 -69t76 -201q0 -138 -48.5 -237.5t-139.5 -153t-219 -53.5h-230zM241 158h34q55 0 96.5 34.5t65 97t23.5 144.5q0 61 -26.5 92.5t-73.5 31.5h-35zM325 767q-10 22 -25 49.5t-31.5 54t-31.5 45.5v11h130q11 -10 25.5 -25.5t28 -32l22.5 -27.5
q28 22 57 43.5t60 41.5h134v-11q-25 -21 -52.5 -47.5t-53 -53t-45.5 -48.5h-218z" />
    <glyph glyph-name="dcaron" unicode="&#x10f;" horiz-adv-x="722" 
d="M198 -10q-42 0 -78 20t-57.5 66t-21.5 125q0 40 9.5 89t28.5 97t48 88t69 64t90 24q45 0 69.5 -20t46.5 -54h4q0 6 1 27t4 47.5t8 49.5l30 147h191l-161 -760h-151l5 60h-4q-20 -28 -49.5 -49t-81.5 -21zM276 142q22 0 39.5 19.5t30 50t19 65t6.5 64.5q0 31 -9.5 50.5
t-29.5 19.5q-26 0 -48.5 -30t-36 -75.5t-13.5 -93.5q0 -70 42 -70zM650 600v13q13 32 28 73.5t26 73.5h177v-10q-25 -40 -53 -75t-62 -75h-116z" />
    <glyph glyph-name="Dcroat" unicode="&#x110;" horiz-adv-x="684" 
d="M16 0l58 275h-69l34 156h68l60 283h210q132 0 204 -70t72 -200q0 -138 -46 -237.5t-134.5 -153t-215.5 -53.5h-241zM241 158h34q55 0 96.5 35t65 98t23.5 149q0 56 -26.5 87t-73.5 31h-35l-27 -127h87l-34 -156h-86z" />
    <glyph glyph-name="dcroat" unicode="&#x111;" horiz-adv-x="604" 
d="M198 -10q-42 0 -78 20t-57.5 66t-21.5 125q0 57 15.5 112.5t45.5 100.5t72 72t94 27q45 0 73.5 -20t50.5 -54h4q0 6 1 27t4 47.5t8 49.5l1 7h-119l24 118h119l15 72h191l-16 -72h77l-25 -118h-77l-120 -570h-151l5 60h-4q-13 -19 -28.5 -35t-39.5 -25.5t-63 -9.5z
M276 142q26 0 45 20.5t29 54.5t10 74q0 31 -11.5 50.5t-31.5 19.5q-27 0 -45.5 -24.5t-28 -59t-9.5 -65.5q0 -70 42 -70z" />
    <glyph glyph-name="Emacron" unicode="&#x112;" horiz-adv-x="562" 
d="M16 0l151 714h424l-32 -155h-233l-23 -112h217l-35 -155h-217l-28 -135h233l-33 -157h-424zM225 767l25 115h325l-24 -115h-326z" />
    <glyph glyph-name="emacron" unicode="&#x113;" horiz-adv-x="579" 
d="M260 -10q-105 0 -162 58.5t-57 160.5q0 68 19.5 131.5t58.5 113.5t98.5 79.5t140.5 29.5q93 0 146 -42t53 -112q0 -91 -71.5 -147t-225.5 -56h-29v-8q0 -72 80 -72q42 0 79.5 13t80.5 35v-134q-44 -22 -91.5 -36t-119.5 -14zM250 324h14q64 0 89 24t25 50q0 16 -10 26.5
t-31 10.5q-22 0 -40.5 -17t-30.5 -42.5t-16 -51.5zM193 606l25 115h325l-24 -115h-326z" />
    <glyph glyph-name="Ebreve" unicode="&#x114;" horiz-adv-x="562" 
d="M16 0l151 714h424l-32 -155h-233l-23 -112h217l-35 -155h-217l-28 -135h233l-33 -157h-424zM391 767q-84 0 -129 42t-45 112q0 17 4 27h106q0 -31 22 -47t58 -16q31 0 58 12t40 51h108q-15 -89 -68 -135t-154 -46z" />
    <glyph glyph-name="ebreve" unicode="&#x115;" horiz-adv-x="579" 
d="M260 -10q-105 0 -162 58.5t-57 160.5q0 68 19.5 131.5t58.5 113.5t98.5 79.5t140.5 29.5q93 0 146 -42t53 -112q0 -91 -71.5 -147t-225.5 -56h-29v-8q0 -72 80 -72q42 0 79.5 13t80.5 35v-134q-44 -22 -91.5 -36t-119.5 -14zM250 324h14q64 0 89 24t25 50q0 16 -10 26.5
t-31 10.5q-22 0 -40.5 -17t-30.5 -42.5t-16 -51.5zM359 606q-84 0 -129 42t-45 112q0 17 4 27h106q0 -31 22 -47t58 -16q31 0 58 12t40 51h108q-15 -89 -68 -135t-154 -46z" />
    <glyph glyph-name="Edotaccent" unicode="&#x116;" horiz-adv-x="562" 
d="M16 0l151 714h424l-32 -155h-233l-23 -112h217l-35 -155h-217l-28 -135h233l-33 -157h-424zM398 767q-40 0 -66.5 14t-26.5 55q0 54 29 78t82 24q23 0 44 -5.5t35 -20.5t14 -43q0 -45 -24.5 -73.5t-86.5 -28.5z" />
    <glyph glyph-name="edotaccent" unicode="&#x117;" horiz-adv-x="579" 
d="M260 -10q-105 0 -162 58.5t-57 160.5q0 68 19.5 131.5t58.5 113.5t98.5 79.5t140.5 29.5q93 0 146 -42t53 -112q0 -91 -71.5 -147t-225.5 -56h-29v-8q0 -72 80 -72q42 0 79.5 13t80.5 35v-134q-44 -22 -91.5 -36t-119.5 -14zM250 324h14q64 0 89 24t25 50q0 16 -10 26.5
t-31 10.5q-22 0 -40.5 -17t-30.5 -42.5t-16 -51.5zM366 606q-40 0 -66.5 14t-26.5 55q0 54 29 78t82 24q23 0 44 -5.5t35 -20.5t14 -43q0 -45 -24.5 -73.5t-86.5 -28.5z" />
    <glyph glyph-name="Eogonek" unicode="&#x118;" horiz-adv-x="562" 
d="M16 0l151 714h424l-32 -155h-233l-23 -112h217l-35 -155h-217l-28 -135h233l-33 -157h-424zM306 -256q-59 0 -90.5 31t-31.5 74q0 50 30 85.5t76 65.5h123q-39 -32 -66 -59.5t-27 -60.5q0 -10 6.5 -17.5t19.5 -7.5q16 0 29 3.5t28 8.5v-108q-22 -7 -43.5 -11t-53.5 -4z
" />
    <glyph glyph-name="eogonek" unicode="&#x119;" horiz-adv-x="579" 
d="M260 -10q-105 0 -162 58.5t-57 160.5q0 68 19.5 131.5t58.5 113.5t98.5 79.5t140.5 29.5q93 0 146 -42t53 -112q0 -91 -71.5 -147t-225.5 -56h-29v-8q0 -72 80 -72q42 0 79.5 13t80.5 35v-134q-16 -8 -30 -14q-51 -47 -81.5 -80.5t-30.5 -65.5q0 -10 6.5 -17.5t19.5 -7.5
q16 0 29 3.5t28 8.5v-108q-22 -7 -44 -11t-53 -4q-59 0 -90.5 31t-31.5 74q0 46 25.5 79.5t66.5 61.5h-25zM250 324h14q64 0 89 24t25 50q0 16 -10 26.5t-31 10.5q-22 0 -40.5 -17t-30.5 -42.5t-16 -51.5z" />
    <glyph glyph-name="Ecaron" unicode="&#x11a;" horiz-adv-x="562" 
d="M16 0l151 714h424l-32 -155h-233l-23 -112h217l-35 -155h-217l-28 -135h233l-33 -157h-424zM284 767q-10 22 -25 49.5t-31.5 54t-31.5 45.5v11h130q11 -10 25.5 -25.5t28 -32l22.5 -27.5q28 22 57 43.5t60 41.5h134v-11q-25 -21 -52.5 -47.5t-53 -53t-45.5 -48.5h-218z
" />
    <glyph glyph-name="ecaron" unicode="&#x11b;" horiz-adv-x="579" 
d="M260 -10q-105 0 -162 58.5t-57 160.5q0 68 19.5 131.5t58.5 113.5t98.5 79.5t140.5 29.5q93 0 146 -42t53 -112q0 -91 -71.5 -147t-225.5 -56h-29v-8q0 -72 80 -72q42 0 79.5 13t80.5 35v-134q-44 -22 -91.5 -36t-119.5 -14zM250 324h14q64 0 89 24t25 50q0 16 -10 26.5
t-31 10.5q-22 0 -40.5 -17t-30.5 -42.5t-16 -51.5zM252 606q-10 22 -25 49.5t-31.5 54t-31.5 45.5v11h130q11 -10 25.5 -25.5t28 -32l22.5 -27.5q28 22 57 43.5t60 41.5h134v-11q-25 -21 -52.5 -47.5t-53 -53t-45.5 -48.5h-218z" />
    <glyph glyph-name="Gcircumflex" unicode="&#x11c;" horiz-adv-x="698" 
d="M319 -10q-121 0 -194.5 71.5t-73.5 213.5q0 86 25.5 166.5t77 144.5t130 101.5t185.5 37.5q62 0 118.5 -13.5t100.5 -38.5l-72 -151q-31 18 -68.5 31t-80.5 13q-63 0 -105.5 -29t-68.5 -73.5t-37.5 -94t-11.5 -91.5q0 -68 26 -98.5t76 -30.5q20 0 33 1.5t32 5.5l25 113
h-112l33 149h298l-82 -388q-51 -16 -112.5 -28t-141.5 -12zM230 767v11q23 21 50.5 47.5t54.5 53t46 48.5h218q10 -22 25 -49.5t31.5 -54t31.5 -45.5v-11h-130q-11 10 -25.5 25.5t-28 32l-22.5 27.5q-28 -22 -57 -43.5t-60 -41.5h-134z" />
    <glyph glyph-name="gcircumflex" unicode="&#x11d;" horiz-adv-x="607" 
d="M191 -240q-61 0 -102 9t-76 22v155q38 -20 82 -31t91 -11q46 0 72.5 22t35.5 56l5 22q5 23 13 50h-4q-20 -25 -47 -42t-74 -17q-41 0 -74.5 19.5t-52.5 64t-19 120.5q0 41 9.5 90t28.5 97t48 88.5t69 64.5t90 24q47 0 74.5 -18.5t54.5 -59.5h4l26 68h151l-120 -566
q-18 -86 -60 -135.5t-100 -70.5t-125 -21zM276 142q22 0 39.5 19.5t30 50t19 65t6.5 64.5q0 31 -9.5 50.5t-29.5 19.5q-26 0 -48.5 -30t-36 -75.5t-13.5 -93.5q0 -70 42 -70zM131 606v11q23 21 50.5 47.5t54.5 53t46 48.5h218q10 -22 25 -49.5t31.5 -54t31.5 -45.5v-11h-130
q-11 10 -25.5 25.5t-28 32l-22.5 27.5q-28 -22 -57 -43.5t-60 -41.5h-134z" />
    <glyph glyph-name="Gbreve" unicode="&#x11e;" horiz-adv-x="698" 
d="M319 -10q-121 0 -194.5 71.5t-73.5 213.5q0 86 25.5 166.5t77 144.5t130 101.5t185.5 37.5q62 0 118.5 -13.5t100.5 -38.5l-72 -151q-31 18 -68.5 31t-80.5 13q-63 0 -105.5 -29t-68.5 -73.5t-37.5 -94t-11.5 -91.5q0 -68 26 -98.5t76 -30.5q20 0 33 1.5t32 5.5l25 113
h-112l33 149h298l-82 -388q-51 -16 -112.5 -28t-141.5 -12zM463 767q-84 0 -129 42t-45 112q0 17 4 27h106q0 -31 22 -47t58 -16q31 0 58 12t40 51h108q-15 -89 -68 -135t-154 -46z" />
    <glyph glyph-name="gbreve" unicode="&#x11f;" horiz-adv-x="607" 
d="M191 -240q-61 0 -102 9t-76 22v155q38 -20 82 -31t91 -11q46 0 72.5 22t35.5 56l5 22q5 23 13 50h-4q-20 -25 -47 -42t-74 -17q-41 0 -74.5 19.5t-52.5 64t-19 120.5q0 41 9.5 90t28.5 97t48 88.5t69 64.5t90 24q47 0 74.5 -18.5t54.5 -59.5h4l26 68h151l-120 -566
q-18 -86 -60 -135.5t-100 -70.5t-125 -21zM276 142q22 0 39.5 19.5t30 50t19 65t6.5 64.5q0 31 -9.5 50.5t-29.5 19.5q-26 0 -48.5 -30t-36 -75.5t-13.5 -93.5q0 -70 42 -70zM364 606q-84 0 -129 42t-45 112q0 17 4 27h106q0 -31 22 -47t58 -16q31 0 58 12t40 51h108
q-15 -89 -68 -135t-154 -46z" />
    <glyph glyph-name="Gdot" unicode="&#x120;" horiz-adv-x="698" 
d="M319 -10q-121 0 -194.5 71.5t-73.5 213.5q0 86 25.5 166.5t77 144.5t130 101.5t185.5 37.5q62 0 118.5 -13.5t100.5 -38.5l-72 -151q-31 18 -68.5 31t-80.5 13q-63 0 -105.5 -29t-68.5 -73.5t-37.5 -94t-11.5 -91.5q0 -68 26 -98.5t76 -30.5q20 0 33 1.5t32 5.5l25 113
h-112l33 149h298l-82 -388q-51 -16 -112.5 -28t-141.5 -12zM470 767q-40 0 -66.5 14t-26.5 55q0 54 29 78t82 24q23 0 44 -5.5t35 -20.5t14 -43q0 -45 -24.5 -73.5t-86.5 -28.5z" />
    <glyph glyph-name="gdot" unicode="&#x121;" horiz-adv-x="607" 
d="M191 -240q-61 0 -102 9t-76 22v155q38 -20 82 -31t91 -11q46 0 72.5 22t35.5 56l5 22q5 23 13 50h-4q-20 -25 -47 -42t-74 -17q-41 0 -74.5 19.5t-52.5 64t-19 120.5q0 41 9.5 90t28.5 97t48 88.5t69 64.5t90 24q47 0 74.5 -18.5t54.5 -59.5h4l26 68h151l-120 -566
q-18 -86 -60 -135.5t-100 -70.5t-125 -21zM276 142q22 0 39.5 19.5t30 50t19 65t6.5 64.5q0 31 -9.5 50.5t-29.5 19.5q-26 0 -48.5 -30t-36 -75.5t-13.5 -93.5q0 -70 42 -70zM371 606q-40 0 -66.5 14t-26.5 55q0 54 29 78t82 24q23 0 44 -5.5t35 -20.5t14 -43
q0 -45 -24.5 -73.5t-86.5 -28.5z" />
    <glyph glyph-name="uni0122" unicode="&#x122;" horiz-adv-x="698" 
d="M319 -10q-121 0 -194.5 71.5t-73.5 213.5q0 86 25.5 166.5t77 144.5t130 101.5t185.5 37.5q62 0 118.5 -13.5t100.5 -38.5l-72 -151q-31 18 -68.5 31t-80.5 13q-63 0 -105.5 -29t-68.5 -73.5t-37.5 -94t-11.5 -91.5q0 -68 26 -98.5t76 -30.5q20 0 33 1.5t32 5.5l25 113
h-112l33 149h298l-82 -388q-51 -16 -112.5 -28t-141.5 -12zM187 -221v13q13 32 28 73.5t25 73.5h177v-10q-24 -40 -52.5 -77t-61.5 -73h-116z" />
    <glyph glyph-name="uni0123" unicode="&#x123;" horiz-adv-x="607" 
d="M191 -240q-61 0 -102 9t-76 22v155q38 -20 82 -31t91 -11q46 0 72.5 22t35.5 56l5 22q5 23 13 50h-4q-20 -25 -47 -42t-74 -17q-41 0 -74.5 19.5t-52.5 64t-19 120.5q0 41 9.5 90t28.5 97t48 88.5t69 64.5t90 24q47 0 74.5 -18.5t54.5 -59.5h4l26 68h151l-120 -566
q-18 -86 -60 -135.5t-100 -70.5t-125 -21zM276 142q22 0 39.5 19.5t30 50t19 65t6.5 64.5q0 31 -9.5 50.5t-29.5 19.5q-26 0 -48.5 -30t-36 -75.5t-13.5 -93.5q0 -70 42 -70zM253 606v10q24 40 52.5 76t62.5 74h116v-13q-13 -32 -28.5 -73.5t-25.5 -73.5h-177z" />
    <glyph glyph-name="Hcircumflex" unicode="&#x124;" horiz-adv-x="714" 
d="M16 0l151 714h191l-55 -265h170l55 265h191l-151 -714h-191l61 291h-169l-62 -291h-191zM214 767v11q23 21 50.5 47.5t54.5 53t46 48.5h218q10 -22 25 -49.5t31.5 -54t31.5 -45.5v-11h-130q-11 10 -25.5 25.5t-28 32l-22.5 27.5q-28 -22 -57 -43.5t-60 -41.5h-134z" />
    <glyph glyph-name="hcircumflex" unicode="&#x125;" horiz-adv-x="622" 
d="M11 0l161 760h189l-26 -122q-7 -35 -20 -73.5t-23 -64.5h4q26 33 59 48t74 15q51 0 83.5 -21.5t47.5 -57.5t15 -78q0 -28 -3.5 -57t-8.5 -55l-62 -294h-189l63 302q3 13 6 32.5t3 36.5q0 21 -11 31.5t-26 10.5q-28 0 -51 -33.5t-39 -109.5l-57 -270h-189zM39 813v11
q23 21 50.5 47.5t54.5 53t46 48.5h218q10 -22 25 -49.5t31.5 -54t31.5 -45.5v-11h-130q-11 10 -25.5 25.5t-28 32l-22.5 27.5q-28 -22 -57 -43.5t-60 -41.5h-134z" />
    <glyph glyph-name="Hbar" unicode="&#x126;" horiz-adv-x="714" 
d="M16 0l110 522h-83l23 115h84l17 77h191l-15 -77h169l16 77h191l-16 -77h84l-24 -115h-85l-110 -522h-191l61 290h-169l-62 -290h-191zM303 449h170l14 73h-170z" />
    <glyph glyph-name="hbar" unicode="&#x127;" horiz-adv-x="622" 
d="M11 0l120 570h-82l25 118h82l16 72h189l-15 -72h131l-25 -118h-131q-8 -32 -19 -65t-20 -55h4q26 33 59 48t74 15q51 0 83.5 -21.5t47.5 -57.5t15 -78q0 -28 -3.5 -57t-8.5 -55l-52 -244h-189l53 252q3 13 6 32.5t3 36.5q0 21 -11 31.5t-26 10.5q-33 0 -54.5 -37
t-35.5 -106l-47 -220h-189z" />
    <glyph glyph-name="Itilde" unicode="&#x128;" horiz-adv-x="426" 
d="M-36 0l23 109l94 39l88 414l-78 42l23 110h367l-23 -110l-98 -42l-88 -414l79 -39l-23 -109h-364zM105 765q16 91 56 129t97 38q29 0 52 -12t44 -24t44 -12q17 0 32 12t24 37h93q-19 -92 -58.5 -129.5t-98.5 -37.5q-31 0 -56 12t-46.5 24t-43.5 12q-15 0 -29.5 -13.5
t-17.5 -35.5h-92z" />
    <glyph glyph-name="itilde" unicode="&#x129;" horiz-adv-x="325" 
d="M11 0l117 553h190l-118 -553h-189zM30 604q16 91 56 129t97 38q29 0 52 -12t44 -24t44 -12q17 0 32 12t24 37h93q-19 -92 -58.5 -129.5t-98.5 -37.5q-31 0 -56 12t-46.5 24t-43.5 12q-15 0 -29.5 -13.5t-17.5 -35.5h-92z" />
    <glyph glyph-name="Imacron" unicode="&#x12a;" horiz-adv-x="426" 
d="M-36 0l23 109l94 39l88 414l-78 42l23 110h367l-23 -110l-98 -42l-88 -414l79 -39l-23 -109h-364zM138 767l25 115h325l-24 -115h-326z" />
    <glyph glyph-name="imacron" unicode="&#x12b;" horiz-adv-x="325" 
d="M11 0l117 553h190l-118 -553h-189zM63 606l25 115h325l-24 -115h-326z" />
    <glyph glyph-name="Ibreve" unicode="&#x12c;" horiz-adv-x="426" 
d="M-36 0l23 109l94 39l88 414l-78 42l23 110h367l-23 -110l-98 -42l-88 -414l79 -39l-23 -109h-364zM304 767q-84 0 -129 42t-45 112q0 17 4 27h106q0 -31 22 -47t58 -16q31 0 58 12t40 51h108q-15 -89 -68 -135t-154 -46z" />
    <glyph glyph-name="ibreve" unicode="&#x12d;" horiz-adv-x="325" 
d="M11 0l117 553h190l-118 -553h-189zM229 606q-84 0 -129 42t-45 112q0 17 4 27h106q0 -31 22 -47t58 -16q31 0 58 12t40 51h108q-15 -89 -68 -135t-154 -46z" />
    <glyph glyph-name="Iogonek" unicode="&#x12e;" horiz-adv-x="426" 
d="M-36 0l23 109l94 39l88 414l-78 42l23 110h367l-23 -110l-98 -42l-88 -414l79 -39l-23 -109h-364zM180 -256q-59 0 -90.5 31t-31.5 74q0 50 30 85.5t76 65.5h123q-39 -32 -66 -59.5t-27 -60.5q0 -10 6.5 -17.5t19.5 -7.5q16 0 29 3.5t28 8.5v-108q-22 -7 -43.5 -11
t-53.5 -4z" />
    <glyph glyph-name="iogonek" unicode="&#x12f;" horiz-adv-x="325" 
d="M244 606q-40 0 -66.5 15.5t-26.5 53.5q0 49 29 75.5t81 26.5q37 0 65 -15.5t28 -53.5q0 -46 -27 -74t-83 -28zM11 0l117 553h190l-118 -553h-189zM84 -256q-59 0 -90.5 31t-31.5 74q0 50 30 85.5t76 65.5h123q-39 -32 -66 -59.5t-27 -60.5q0 -10 6.5 -17.5t19.5 -7.5
q16 0 29 3.5t28 8.5v-108q-22 -7 -43.5 -11t-53.5 -4z" />
    <glyph glyph-name="Idotaccent" unicode="&#x130;" horiz-adv-x="426" 
d="M-36 0l23 109l94 39l88 414l-78 42l23 110h367l-23 -110l-98 -42l-88 -414l79 -39l-23 -109h-364zM311 767q-40 0 -66.5 14t-26.5 55q0 54 29 78t82 24q23 0 44 -5.5t35 -20.5t14 -43q0 -45 -24.5 -73.5t-86.5 -28.5z" />
    <glyph glyph-name="dotlessi" unicode="&#x131;" horiz-adv-x="325" 
d="M11 0l117 553h190l-118 -553h-189z" />
    <glyph glyph-name="IJ" unicode="&#x132;" horiz-adv-x="799" 
d="M-36 0l23 109l94 39l88 414l-78 42l23 110h367l-23 -110l-98 -42l-88 -414l79 -39l-23 -109h-364zM370 -225q-26 0 -53.5 4t-50.5 10v156q18 -5 38.5 -8.5t46.5 -3.5q46 0 75 25t45 99l141 657h191l-146 -681q-20 -94 -54.5 -150.5t-90.5 -82t-142 -25.5z" />
    <glyph glyph-name="ij" unicode="&#x133;" horiz-adv-x="650" 
d="M244 606q-40 0 -66.5 15.5t-26.5 53.5q0 49 29 75.5t81 26.5q37 0 65 -15.5t28 -53.5q0 -46 -27 -74t-83 -28zM11 0l117 553h190l-118 -553h-189zM573 606q-40 0 -66.5 15.5t-26.5 53.5q0 49 29 75.5t81 26.5q37 0 65 -15.5t28 -53.5q0 -46 -27 -74t-83 -28zM297 -240
q-26 0 -55 4t-46 9v148q18 -6 30 -7.5t25 -1.5q30 0 53.5 16.5t31.5 55.5l121 569h189l-127 -599q-10 -50 -35.5 -94.5t-71 -72t-115.5 -27.5z" />
    <glyph glyph-name="Jcircumflex" unicode="&#x134;" horiz-adv-x="373" 
d="M-56 -225q-26 0 -53.5 4t-50.5 10v156q18 -5 38.5 -8.5t46.5 -3.5q46 0 75 25t45 99l141 657h191l-146 -681q-20 -94 -54.5 -150.5t-90.5 -82t-142 -25.5zM54 767v11q23 21 50.5 47.5t54.5 53t46 48.5h218q10 -22 25 -49.5t31.5 -54t31.5 -45.5v-11h-130
q-11 10 -25.5 25.5t-28 32l-22.5 27.5q-28 -22 -57 -43.5t-60 -41.5h-134z" />
    <glyph glyph-name="jcircumflex" unicode="&#x135;" horiz-adv-x="325" 
d="M-28 -240q-26 0 -55 4t-46 9v148q18 -6 30 -7.5t25 -1.5q30 0 53.5 16.5t31.5 55.5l121 569h189l-127 -599q-10 -50 -35.5 -94.5t-71 -72t-115.5 -27.5zM-5 606v11q23 21 50.5 47.5t54.5 53t46 48.5h218q10 -22 25 -49.5t31.5 -54t31.5 -45.5v-11h-130q-11 10 -25.5 25.5
t-28 32l-22.5 27.5q-28 -22 -57 -43.5t-60 -41.5h-134z" />
    <glyph glyph-name="uni0136" unicode="&#x136;" horiz-adv-x="669" 
d="M16 0l151 714h191l-66 -305l71 100l156 205h224l-269 -329l132 -385h-214l-85 282l-47 -27l-53 -255h-191zM147 -221v13q13 32 28 73.5t25 73.5h177v-10q-24 -40 -52.5 -77t-61.5 -73h-116z" />
    <glyph glyph-name="uni0137" unicode="&#x137;" horiz-adv-x="617" 
d="M11 0l159 760h189l-68 -324q-6 -27 -15.5 -60.5t-15.5 -49.5h4l191 227h216l-240 -250l134 -303h-214l-68 191l-49 -26l-34 -165h-189zM117 -221v13q13 32 28 73.5t25 73.5h177v-10q-24 -40 -52.5 -77t-61.5 -73h-116z" />
    <glyph glyph-name="kgreenlandic" unicode="&#x138;" horiz-adv-x="617" 
d="M11 0l116 553h189l-25 -117q-6 -27 -15 -55.5t-17 -49.5h4l188 222h218l-238 -250l134 -303h-214l-68 191l-49 -26l-34 -165h-189z" />
    <glyph glyph-name="Lacute" unicode="&#x139;" horiz-adv-x="527" 
d="M16 0l151 714h191l-118 -558h233l-33 -156h-424zM200 767v11q34 29 72 71t66 78h214v-7q-11 -13 -36.5 -34t-57.5 -43.5t-64 -43t-55 -32.5h-139z" />
    <glyph glyph-name="lacute" unicode="&#x13a;" horiz-adv-x="325" 
d="M11 0l161 760h189l-161 -760h-189zM179 813v11q34 29 72 71t66 78h214v-7q-11 -13 -36.5 -34t-57.5 -43.5t-64 -43t-55 -32.5h-139z" />
    <glyph glyph-name="uni013B" unicode="&#x13b;" horiz-adv-x="527" 
d="M16 0l151 714h191l-118 -558h233l-33 -156h-424zM89 -221v13q13 32 28 73.5t25 73.5h177v-10q-24 -40 -52.5 -77t-61.5 -73h-116z" />
    <glyph glyph-name="uni013C" unicode="&#x13c;" horiz-adv-x="325" 
d="M11 0l161 760h189l-161 -760h-189zM-41 -221v13q13 32 28 73.5t25 73.5h177v-10q-24 -40 -52.5 -77t-61.5 -73h-116z" />
    <glyph glyph-name="Lcaron" unicode="&#x13d;" horiz-adv-x="527" 
d="M16 0l151 714h191l-118 -558h233l-33 -156h-424zM385 552v13q13 32 28 73.5t26 73.5h177v-10q-25 -40 -53 -75t-62 -75h-116z" />
    <glyph glyph-name="lcaron" unicode="&#x13e;" horiz-adv-x="437" 
d="M11 0l161 760h189l-161 -760h-189zM365 600v13q13 32 28 73.5t26 73.5h177v-10q-25 -40 -53 -75t-62 -75h-116z" />
    <glyph glyph-name="Ldot" unicode="&#x13f;" horiz-adv-x="527" 
d="M16 0l151 714h191l-118 -558h233l-33 -156h-424zM443 289q-40 0 -66.5 14t-26.5 55q0 54 29 78t82 24q23 0 44 -5.5t35 -20.5t14 -43q0 -45 -24.5 -73.5t-86.5 -28.5z" />
    <glyph glyph-name="ldot" unicode="&#x140;" horiz-adv-x="533" 
d="M11 0l161 760h189l-161 -760h-189zM436 258q-40 0 -66.5 14t-26.5 55q0 54 29 78t82 24q23 0 44 -5.5t35 -20.5t14 -43q0 -45 -24.5 -73.5t-86.5 -28.5z" />
    <glyph glyph-name="Lslash" unicode="&#x141;" horiz-adv-x="537" 
d="M26 0l50 237l-38 -19l-61 118l134 71l66 307h191l-44 -205l84 44l64 -119l-184 -96l-38 -182h233l-33 -156h-424z" />
    <glyph glyph-name="lslash" unicode="&#x142;" horiz-adv-x="355" 
d="M26 0l44 205l-42 -21l-52 109l126 65l85 402h189l-65 -306l42 21l57 -109l-132 -66l-63 -300h-189z" />
    <glyph glyph-name="Nacute" unicode="&#x143;" horiz-adv-x="790" 
d="M16 0l151 714h222l140 -480h4l7.5 55t10 67t10.5 59l64 299h170l-151 -714h-222l-141 502h-4q-1 -10 -3.5 -33.5t-6 -54t-8.5 -61.5t-10 -55l-63 -298h-170zM405 767v11q34 29 72 71t66 78h214v-7q-11 -13 -36.5 -34t-57.5 -43.5t-64 -43t-55 -32.5h-139z" />
    <glyph glyph-name="nacute" unicode="&#x144;" horiz-adv-x="622" 
d="M11 0l117 553h151l-6 -77h4q27 46 63 66.5t89 20.5q51 0 83.5 -21.5t47.5 -57.5t15 -78q0 -28 -3.5 -57t-8.5 -55l-62 -294h-189l63 302q3 13 6 32.5t3 36.5q0 21 -11 31.5t-26 10.5q-28 0 -51.5 -34.5t-38.5 -108.5l-57 -270h-189zM288 606v11q34 29 72 71t66 78h214v-7
q-11 -13 -36.5 -34t-57.5 -43.5t-64 -43t-55 -32.5h-139z" />
    <glyph glyph-name="uni0145" unicode="&#x145;" horiz-adv-x="790" 
d="M16 0l151 714h222l140 -480h4l7.5 55t10 67t10.5 59l64 299h170l-151 -714h-222l-141 502h-4q-1 -10 -3.5 -33.5t-6 -54t-8.5 -61.5t-10 -55l-63 -298h-170zM185 -221v13q13 32 28 73.5t25 73.5h177v-10q-24 -40 -52.5 -77t-61.5 -73h-116z" />
    <glyph glyph-name="uni0146" unicode="&#x146;" horiz-adv-x="622" 
d="M11 0l117 553h151l-6 -77h4q27 46 63 66.5t89 20.5q51 0 83.5 -21.5t47.5 -57.5t15 -78q0 -28 -3.5 -57t-8.5 -55l-62 -294h-189l63 302q3 13 6 32.5t3 36.5q0 21 -11 31.5t-26 10.5q-28 0 -51.5 -34.5t-38.5 -108.5l-57 -270h-189zM111 -221v13q13 32 28 73.5t25 73.5
h177v-10q-24 -40 -52.5 -77t-61.5 -73h-116z" />
    <glyph glyph-name="Ncaron" unicode="&#x147;" horiz-adv-x="790" 
d="M16 0l151 714h222l140 -480h4l7.5 55t10 67t10.5 59l64 299h170l-151 -714h-222l-141 502h-4q-1 -10 -3.5 -33.5t-6 -54t-8.5 -61.5t-10 -55l-63 -298h-170zM393 767q-10 22 -25 49.5t-31.5 54t-31.5 45.5v11h130q11 -10 25.5 -25.5t28 -32l22.5 -27.5q28 22 57 43.5
t60 41.5h134v-11q-25 -21 -52.5 -47.5t-53 -53t-45.5 -48.5h-218z" />
    <glyph glyph-name="ncaron" unicode="&#x148;" horiz-adv-x="622" 
d="M11 0l117 553h151l-6 -77h4q27 46 63 66.5t89 20.5q51 0 83.5 -21.5t47.5 -57.5t15 -78q0 -28 -3.5 -57t-8.5 -55l-62 -294h-189l63 302q3 13 6 32.5t3 36.5q0 21 -11 31.5t-26 10.5q-28 0 -51.5 -34.5t-38.5 -108.5l-57 -270h-189zM276 606q-10 22 -25 49.5t-31.5 54
t-31.5 45.5v11h130q11 -10 25.5 -25.5t28 -32l22.5 -27.5q28 22 57 43.5t60 41.5h134v-11q-25 -21 -52.5 -47.5t-53 -53t-45.5 -48.5h-218z" />
    <glyph glyph-name="napostrophe" unicode="&#x149;" horiz-adv-x="705" 
d="M94 0l117 553h151l-6 -77h4q27 46 63 66.5t89 20.5q51 0 83.5 -21.5t47.5 -57.5t15 -78q0 -28 -3.5 -57t-8.5 -55l-62 -294h-189l63 302q3 13 6 32.5t3 36.5q0 21 -11 31.5t-26 10.5q-28 0 -51.5 -34.5t-38.5 -108.5l-57 -270h-189zM-30 469q25 59 49.5 126t42.5 119h170
l4 -11q-22 -51 -56 -114.5t-69 -119.5h-141z" />
    <glyph glyph-name="Eng" unicode="&#x14a;" horiz-adv-x="790" 
d="M364 -225q-26 0 -53.5 4t-50.5 10v150q18 -5 39 -8.5t54 -3.5q38 0 71 17t45 60l-188 498h-4q-1 -10 -3.5 -33.5t-6 -54t-8.5 -61.5t-10 -55l-63 -298h-170l151 714h210l159 -426h4q2 22 7.5 53t12 63t11.5 57l54 253h170l-151 -714q-24 -114 -87.5 -169.5t-192.5 -55.5z
" />
    <glyph glyph-name="eng" unicode="&#x14b;" horiz-adv-x="622" 
d="M269 -240q-26 0 -55 4t-46 9v148q18 -6 30 -7.5t25 -1.5q30 0 53.5 16.5t31.5 55.5l67 318q3 13 6 32.5t3 36.5q0 21 -11 31.5t-26 10.5q-29 0 -52 -35t-38 -108l-57 -270h-189l117 553h151l-6 -77h4q27 46 63 66.5t89 20.5q51 0 83.5 -21.5t47.5 -57.5t15 -78
q0 -28 -3.5 -57t-8.5 -55l-72 -340q-11 -50 -36 -94.5t-70.5 -72t-115.5 -27.5z" />
    <glyph glyph-name="Omacron" unicode="&#x14c;" horiz-adv-x="737" 
d="M325 -10q-137 0 -205.5 75t-68.5 200q0 83 23.5 164.5t71 148.5t120.5 107t172 40q132 0 200 -75.5t68 -199.5q0 -83 -22.5 -164.5t-69.5 -148.5t-118.5 -107t-170.5 -40zM342 148q48 0 87 41t61.5 109t22.5 150q0 56 -23.5 87.5t-67.5 31.5q-40 0 -73 -26.5t-56.5 -70
t-36 -97t-12.5 -107.5q0 -118 98 -118zM296 767l25 115h325l-24 -115h-326z" />
    <glyph glyph-name="omacron" unicode="&#x14d;" horiz-adv-x="607" 
d="M254 -10q-102 0 -157.5 55.5t-55.5 157.5q0 71 20 135.5t59 115t97.5 80t135.5 29.5q102 0 157.5 -55.5t55.5 -157.5q0 -71 -20 -135.5t-59 -115t-97.5 -80t-135.5 -29.5zM275 132q28 0 50 33.5t35 85t13 105.5q0 65 -42 65q-28 0 -50 -33.5t-34.5 -84.5t-12.5 -106
q0 -65 41 -65zM199 606l25 115h325l-24 -115h-326z" />
    <glyph glyph-name="Obreve" unicode="&#x14e;" horiz-adv-x="737" 
d="M325 -10q-137 0 -205.5 75t-68.5 200q0 83 23.5 164.5t71 148.5t120.5 107t172 40q132 0 200 -75.5t68 -199.5q0 -83 -22.5 -164.5t-69.5 -148.5t-118.5 -107t-170.5 -40zM342 148q48 0 87 41t61.5 109t22.5 150q0 56 -23.5 87.5t-67.5 31.5q-40 0 -73 -26.5t-56.5 -70
t-36 -97t-12.5 -107.5q0 -118 98 -118zM462 767q-84 0 -129 42t-45 112q0 17 4 27h106q0 -31 22 -47t58 -16q31 0 58 12t40 51h108q-15 -89 -68 -135t-154 -46z" />
    <glyph glyph-name="obreve" unicode="&#x14f;" horiz-adv-x="607" 
d="M254 -10q-102 0 -157.5 55.5t-55.5 157.5q0 71 20 135.5t59 115t97.5 80t135.5 29.5q102 0 157.5 -55.5t55.5 -157.5q0 -71 -20 -135.5t-59 -115t-97.5 -80t-135.5 -29.5zM275 132q28 0 50 33.5t35 85t13 105.5q0 65 -42 65q-28 0 -50 -33.5t-34.5 -84.5t-12.5 -106
q0 -65 41 -65zM365 606q-84 0 -129 42t-45 112q0 17 4 27h106q0 -31 22 -47t58 -16q31 0 58 12t40 51h108q-15 -89 -68 -135t-154 -46z" />
    <glyph glyph-name="Ohungarumlaut" unicode="&#x150;" horiz-adv-x="737" 
d="M325 -10q-137 0 -205.5 75t-68.5 200q0 83 23.5 164.5t71 148.5t120.5 107t172 40q132 0 200 -75.5t68 -199.5q0 -83 -22.5 -164.5t-69.5 -148.5t-118.5 -107t-170.5 -40zM342 148q48 0 87 41t61.5 109t22.5 150q0 56 -23.5 87.5t-67.5 31.5q-40 0 -73 -26.5t-56.5 -70
t-36 -97t-12.5 -107.5q0 -118 98 -118zM524 767v14q14 19 33 44.5t37.5 52.5t30.5 49h182v-10q-8 -13 -30 -33t-50.5 -42t-56 -42t-47.5 -33h-99zM298 767v14q15 19 35 44.5t39 52.5t32 49h181v-10q-8 -13 -30.5 -33t-52 -42t-58 -42t-47.5 -33h-99z" />
    <glyph glyph-name="ohungarumlaut" unicode="&#x151;" horiz-adv-x="607" 
d="M254 -10q-102 0 -157.5 55.5t-55.5 157.5q0 71 20 135.5t59 115t97.5 80t135.5 29.5q102 0 157.5 -55.5t55.5 -157.5q0 -71 -20 -135.5t-59 -115t-97.5 -80t-135.5 -29.5zM275 132q28 0 50 33.5t35 85t13 105.5q0 65 -42 65q-28 0 -50 -33.5t-34.5 -84.5t-12.5 -106
q0 -65 41 -65zM427 606v14q14 19 33 44.5t37.5 52.5t30.5 49h182v-10q-8 -13 -30 -33t-50.5 -42t-56 -42t-47.5 -33h-99zM201 606v14q15 19 35 44.5t39 52.5t32 49h181v-10q-8 -13 -30.5 -33t-52 -42t-58 -42t-47.5 -33h-99z" />
    <glyph glyph-name="OE" unicode="&#x152;" horiz-adv-x="932" 
d="M316 -10q-87 0 -146 34t-89 94t-30 140q0 62 13.5 127.5t42 126t74.5 108.5t110.5 76.5t149.5 28.5q24 0 48.5 -3.5t44.5 -7.5h427l-33 -156h-233l-23 -110h217l-35 -157h-217l-28 -133h233l-32 -158h-398q-22 -4 -46.5 -7t-49.5 -3zM333 151q21 0 44 4.5t44 15.5l79 372
q-14 13 -33.5 18.5t-41.5 5.5q-37 0 -69.5 -25t-57.5 -68t-39.5 -99t-14.5 -118q0 -55 23.5 -80.5t65.5 -25.5z" />
    <glyph glyph-name="oe" unicode="&#x153;" horiz-adv-x="880" 
d="M254 -10q-102 0 -157.5 55.5t-55.5 157.5q0 71 19.5 135.5t58 115t94.5 80t129 29.5q47 0 80.5 -16t54.5 -45q33 28 78 44.5t104 16.5q93 0 146 -42t53 -112q0 -91 -71 -147t-226 -56h-29v-9q0 -71 80 -71q42 0 79.5 13t80.5 35v-134q-44 -22 -91.5 -36t-119.5 -14
q-51 0 -86 14t-58 41q-29 -26 -70 -40.5t-93 -14.5zM551 324h14q64 0 89 24t25 50q0 16 -10 26.5t-31 10.5q-22 0 -40.5 -17t-31 -42.5t-15.5 -51.5zM275 132q28 0 50 33.5t35 85t13 105.5q0 65 -42 65q-28 0 -50 -33.5t-34.5 -84.5t-12.5 -106q0 -65 41 -65z" />
    <glyph glyph-name="Racute" unicode="&#x154;" horiz-adv-x="650" 
d="M16 0l151 714h189q123 0 188.5 -49t65.5 -147q0 -66 -21.5 -109.5t-53.5 -70t-63 -39.5l129 -299h-208l-95 260h-36l-55 -260h-191zM293 405h25q38 0 69.5 23t31.5 78q0 26 -14.5 44t-51.5 18h-26zM326 767v11q34 29 72 71t66 78h214v-7q-11 -13 -36.5 -34t-57.5 -43.5
t-64 -43t-55 -32.5h-139z" />
    <glyph glyph-name="racute" unicode="&#x155;" horiz-adv-x="437" 
d="M11 0l117 553h151l-9 -92h4q34 59 72 80.5t94 21.5q10 0 22 -1.5t17 -2.5l-41 -187q-10 4 -26 7.5t-34 3.5q-44 0 -76.5 -30.5t-49.5 -109.5l-52 -243h-189zM215 606v11q34 29 72 71t66 78h214v-7q-11 -13 -36.5 -34t-57.5 -43.5t-64 -43t-55 -32.5h-139z" />
    <glyph glyph-name="uni0156" unicode="&#x156;" horiz-adv-x="650" 
d="M16 0l151 714h189q123 0 188.5 -49t65.5 -147q0 -66 -21.5 -109.5t-53.5 -70t-63 -39.5l129 -299h-208l-95 260h-36l-55 -260h-191zM293 405h25q38 0 69.5 23t31.5 78q0 26 -14.5 44t-51.5 18h-26zM131 -221v13q13 32 28 73.5t25 73.5h177v-10q-24 -40 -52.5 -77
t-61.5 -73h-116z" />
    <glyph glyph-name="uni0157" unicode="&#x157;" horiz-adv-x="437" 
d="M11 0l117 553h151l-9 -92h4q34 59 72 80.5t94 21.5q10 0 22 -1.5t17 -2.5l-41 -187q-10 4 -26 7.5t-34 3.5q-44 0 -76.5 -30.5t-49.5 -109.5l-52 -243h-189zM-34 -221v13q13 32 28 73.5t25 73.5h177v-10q-24 -40 -52.5 -77t-61.5 -73h-116z" />
    <glyph glyph-name="Rcaron" unicode="&#x158;" horiz-adv-x="650" 
d="M16 0l151 714h189q123 0 188.5 -49t65.5 -147q0 -66 -21.5 -109.5t-53.5 -70t-63 -39.5l129 -299h-208l-95 260h-36l-55 -260h-191zM293 405h25q38 0 69.5 23t31.5 78q0 26 -14.5 44t-51.5 18h-26zM314 767q-10 22 -25 49.5t-31.5 54t-31.5 45.5v11h130
q11 -10 25.5 -25.5t28 -32l22.5 -27.5q28 22 57 43.5t60 41.5h134v-11q-25 -21 -52.5 -47.5t-53 -53t-45.5 -48.5h-218z" />
    <glyph glyph-name="rcaron" unicode="&#x159;" horiz-adv-x="437" 
d="M11 0l117 553h151l-9 -92h4q34 59 72 80.5t94 21.5q10 0 22 -1.5t17 -2.5l-41 -187q-10 4 -26 7.5t-34 3.5q-44 0 -76.5 -30.5t-49.5 -109.5l-52 -243h-189zM203 606q-10 22 -25 49.5t-31.5 54t-31.5 45.5v11h130q11 -10 25.5 -25.5t28 -32l22.5 -27.5q28 22 57 43.5
t60 41.5h134v-11q-25 -21 -52.5 -47.5t-53 -53t-45.5 -48.5h-218z" />
    <glyph glyph-name="Sacute" unicode="&#x15a;" horiz-adv-x="548" 
d="M205 -10q-53 0 -101 12t-83 35v171q39 -24 92 -42.5t98 -18.5q73 0 73 58q0 27 -23.5 49t-56.5 49q-50 41 -79.5 87.5t-29.5 111.5q0 64 32 114.5t88.5 79t132.5 28.5q58 0 112 -13.5t98 -38.5l-66 -145q-34 17 -71.5 30t-70.5 13q-40 0 -52.5 -18.5t-12.5 -35.5
q0 -22 16 -43.5t63 -56.5q59 -44 86 -90.5t27 -106.5q0 -107 -70.5 -168t-201.5 -61zM271 767v11q34 29 72 71t66 78h214v-7q-11 -13 -36.5 -34t-57.5 -43.5t-64 -43t-55 -32.5h-139z" />
    <glyph glyph-name="sacute" unicode="&#x15b;" horiz-adv-x="502" 
d="M189 -10q-55 0 -98.5 8t-75.5 23v152q45 -25 83.5 -34.5t78.5 -9.5q11 0 27 2.5t27.5 9.5t11.5 22q0 11 -5 20t-21.5 21t-49.5 30q-52 28 -75.5 65t-23.5 89q0 78 55.5 126.5t171.5 48.5q54 0 99.5 -13t87.5 -39l-59 -123q-28 18 -62.5 32t-63.5 14q-37 0 -37 -33
q0 -14 15 -25t50 -28q110 -54 110 -156q0 -103 -66.5 -152.5t-179.5 -49.5zM202 606v11q34 29 72 71t66 78h214v-7q-11 -13 -36.5 -34t-57.5 -43.5t-64 -43t-55 -32.5h-139z" />
    <glyph glyph-name="Scircumflex" unicode="&#x15c;" horiz-adv-x="548" 
d="M205 -10q-53 0 -101 12t-83 35v171q39 -24 92 -42.5t98 -18.5q73 0 73 58q0 27 -23.5 49t-56.5 49q-50 41 -79.5 87.5t-29.5 111.5q0 64 32 114.5t88.5 79t132.5 28.5q58 0 112 -13.5t98 -38.5l-66 -145q-34 17 -71.5 30t-70.5 13q-40 0 -52.5 -18.5t-12.5 -35.5
q0 -22 16 -43.5t63 -56.5q59 -44 86 -90.5t27 -106.5q0 -107 -70.5 -168t-201.5 -61zM133 767v11q23 21 50.5 47.5t54.5 53t46 48.5h218q10 -22 25 -49.5t31.5 -54t31.5 -45.5v-11h-130q-11 10 -25.5 25.5t-28 32l-22.5 27.5q-28 -22 -57 -43.5t-60 -41.5h-134z" />
    <glyph glyph-name="scircumflex" unicode="&#x15d;" horiz-adv-x="502" 
d="M189 -10q-55 0 -98.5 8t-75.5 23v152q45 -25 83.5 -34.5t78.5 -9.5q11 0 27 2.5t27.5 9.5t11.5 22q0 11 -5 20t-21.5 21t-49.5 30q-52 28 -75.5 65t-23.5 89q0 78 55.5 126.5t171.5 48.5q54 0 99.5 -13t87.5 -39l-59 -123q-28 18 -62.5 32t-63.5 14q-37 0 -37 -33
q0 -14 15 -25t50 -28q110 -54 110 -156q0 -103 -66.5 -152.5t-179.5 -49.5zM64 606v11q23 21 50.5 47.5t54.5 53t46 48.5h218q10 -22 25 -49.5t31.5 -54t31.5 -45.5v-11h-130q-11 10 -25.5 25.5t-28 32l-22.5 27.5q-28 -22 -57 -43.5t-60 -41.5h-134z" />
    <glyph glyph-name="Scedilla" unicode="&#x15e;" horiz-adv-x="548" 
d="M205 -10q-53 0 -101 12t-83 35v171q39 -24 92 -42.5t98 -18.5q73 0 73 58q0 27 -23.5 49t-56.5 49q-50 41 -79.5 87.5t-29.5 111.5q0 64 32 114.5t88.5 79t132.5 28.5q58 0 112 -13.5t98 -38.5l-66 -145q-34 17 -71.5 30t-70.5 13q-40 0 -52.5 -18.5t-12.5 -35.5
q0 -22 16 -43.5t63 -56.5q59 -44 86 -90.5t27 -106.5q0 -107 -70.5 -168t-201.5 -61zM171 -240q-30 0 -53 3.5t-41 10.5v100q16 -5 40.5 -9t33.5 -4q33 0 33 24q0 13 -13 26.5t-58 22.5l37 66h100l-12 -20q38 -8 62.5 -30t24.5 -65q0 -59 -40 -92t-114 -33z" />
    <glyph glyph-name="scedilla" unicode="&#x15f;" horiz-adv-x="502" 
d="M189 -10q-55 0 -98.5 8t-75.5 23v152q45 -25 83.5 -34.5t78.5 -9.5q11 0 27 2.5t27.5 9.5t11.5 22q0 11 -5 20t-21.5 21t-49.5 30q-52 28 -75.5 65t-23.5 89q0 78 55.5 126.5t171.5 48.5q54 0 99.5 -13t87.5 -39l-59 -123q-28 18 -62.5 32t-63.5 14q-37 0 -37 -33
q0 -14 15 -25t50 -28q110 -54 110 -156q0 -103 -66.5 -152.5t-179.5 -49.5zM150 -240q-30 0 -53 3.5t-41 10.5v100q16 -5 40.5 -9t33.5 -4q33 0 33 24q0 13 -13 26.5t-58 22.5l37 66h100l-12 -20q38 -8 62.5 -30t24.5 -65q0 -59 -40 -92t-114 -33z" />
    <glyph glyph-name="Scaron" unicode="&#x160;" horiz-adv-x="548" 
d="M205 -10q-53 0 -101 12t-83 35v171q39 -24 92 -42.5t98 -18.5q73 0 73 58q0 27 -23.5 49t-56.5 49q-50 41 -79.5 87.5t-29.5 111.5q0 64 32 114.5t88.5 79t132.5 28.5q58 0 112 -13.5t98 -38.5l-66 -145q-34 17 -71.5 30t-70.5 13q-40 0 -52.5 -18.5t-12.5 -35.5
q0 -22 16 -43.5t63 -56.5q59 -44 86 -90.5t27 -106.5q0 -107 -70.5 -168t-201.5 -61zM259 767q-10 22 -25 49.5t-31.5 54t-31.5 45.5v11h130q11 -10 25.5 -25.5t28 -32l22.5 -27.5q28 22 57 43.5t60 41.5h134v-11q-25 -21 -52.5 -47.5t-53 -53t-45.5 -48.5h-218z" />
    <glyph glyph-name="scaron" unicode="&#x161;" horiz-adv-x="502" 
d="M189 -10q-55 0 -98.5 8t-75.5 23v152q45 -25 83.5 -34.5t78.5 -9.5q11 0 27 2.5t27.5 9.5t11.5 22q0 11 -5 20t-21.5 21t-49.5 30q-52 28 -75.5 65t-23.5 89q0 78 55.5 126.5t171.5 48.5q54 0 99.5 -13t87.5 -39l-59 -123q-28 18 -62.5 32t-63.5 14q-37 0 -37 -33
q0 -14 15 -25t50 -28q110 -54 110 -156q0 -103 -66.5 -152.5t-179.5 -49.5zM190 606q-10 22 -25 49.5t-31.5 54t-31.5 45.5v11h130q11 -10 25.5 -25.5t28 -32l22.5 -27.5q28 22 57 43.5t60 41.5h134v-11q-25 -21 -52.5 -47.5t-53 -53t-45.5 -48.5h-218z" />
    <glyph glyph-name="uni0162" unicode="&#x162;" horiz-adv-x="552" 
d="M115 0l116 556h-155l34 158h502l-35 -158h-155l-116 -556h-191zM175 -240q-30 0 -53 3.5t-41 10.5v100q16 -5 40.5 -9t33.5 -4q33 0 33 24q0 13 -13 26.5t-58 22.5l37 66h100l-12 -20q38 -8 62.5 -30t24.5 -65q0 -59 -40 -92t-114 -33z" />
    <glyph glyph-name="uni0163" unicode="&#x163;" horiz-adv-x="457" 
d="M200 -10q-72 0 -109.5 31t-37.5 102q0 20 3.5 46t8.5 46l41 196h-75l20 93l106 43l67 117h126l-24 -111h141l-31 -142h-141l-41 -187q-3 -14 -5.5 -28.5t-2.5 -22.5q0 -17 9 -24t22 -7q19 0 42 6.5t47 16.5v-142q-31 -15 -71.5 -24t-94.5 -9zM156 -240q-30 0 -53 3.5
t-41 10.5v100q16 -5 40.5 -9t33.5 -4q33 0 33 24q0 13 -13 26.5t-58 22.5l37 66h100l-12 -20q38 -8 62.5 -30t24.5 -65q0 -59 -40 -92t-114 -33z" />
    <glyph glyph-name="Tcaron" unicode="&#x164;" horiz-adv-x="552" 
d="M115 0l116 556h-155l34 158h502l-35 -158h-155l-116 -556h-191zM269 767q-10 22 -25 49.5t-31.5 54t-31.5 45.5v11h130q11 -10 25.5 -25.5t28 -32l22.5 -27.5q28 22 57 43.5t60 41.5h134v-11q-25 -21 -52.5 -47.5t-53 -53t-45.5 -48.5h-218z" />
    <glyph glyph-name="tcaron" unicode="&#x165;" horiz-adv-x="457" 
d="M200 -10q-72 0 -109.5 31t-37.5 102q0 20 3.5 46t8.5 46l41 196h-75l20 93l106 43l67 117h126l-24 -111h141l-31 -142h-141l-41 -187q-3 -14 -5.5 -28.5t-2.5 -22.5q0 -17 9 -24t22 -7q19 0 42 6.5t47 16.5v-142q-31 -15 -71.5 -24t-94.5 -9zM383 600v13q13 32 28 73.5
t26 73.5h177v-10q-25 -40 -53 -75t-62 -75h-116z" />
    <glyph glyph-name="Tbar" unicode="&#x166;" horiz-adv-x="552" 
d="M115 0l55 265h-100l33 156h100l28 135h-155l34 158h502l-35 -158h-155l-28 -135h101l-34 -156h-100l-55 -265h-191z" />
    <glyph glyph-name="tbar" unicode="&#x167;" horiz-adv-x="457" 
d="M202 -10q-72 0 -112 28t-40 98q0 14 2 31t5 33l7 36h-53l25 118h53l17 76h-75l20 94l106 43l66 116h126l-23 -110h141l-31 -143h-141l-17 -76h121l-25 -118h-122l-1 -7q-3 -14 -5 -25t-2 -19q0 -17 9 -20.5t22 -3.5q15 0 40 5.5t49 15.5v-140q-31 -15 -69.5 -23.5
t-92.5 -8.5z" />
    <glyph glyph-name="Utilde" unicode="&#x168;" horiz-adv-x="701" 
d="M298 -10q-74 0 -127.5 27t-81.5 73.5t-28 106.5q0 15 1.5 32.5t4.5 33.5l97 451h191l-95 -446q-3 -14 -5 -28.5t-2 -27.5q0 -29 16 -45.5t47 -16.5q43 0 68 29t40 99l93 436h191l-97 -455q-19 -87 -55.5 -147t-99 -91t-158.5 -31zM240 765q16 91 56 129t97 38
q29 0 52 -12t44 -24t44 -12q17 0 32 12t24 37h93q-19 -92 -58.5 -129.5t-98.5 -37.5q-31 0 -56 12t-46.5 24t-43.5 12q-15 0 -29.5 -13.5t-17.5 -35.5h-92z" />
    <glyph glyph-name="utilde" unicode="&#x169;" horiz-adv-x="622" 
d="M193 -10q-51 0 -83.5 21.5t-47.5 57t-15 78.5q0 28 3.5 57t8.5 55l62 294h189l-63 -301q-3 -13 -6 -32.5t-3 -36.5q0 -21 11 -31.5t26 -10.5q25 0 49.5 34.5t40.5 108.5l57 269h189l-117 -553h-151l6 77h-4q-27 -47 -63 -67t-89 -20zM171 604q16 91 56 129t97 38
q29 0 52 -12t44 -24t44 -12q17 0 32 12t24 37h93q-19 -92 -58.5 -129.5t-98.5 -37.5q-31 0 -56 12t-46.5 24t-43.5 12q-15 0 -29.5 -13.5t-17.5 -35.5h-92z" />
    <glyph glyph-name="Umacron" unicode="&#x16a;" horiz-adv-x="701" 
d="M298 -10q-74 0 -127.5 27t-81.5 73.5t-28 106.5q0 15 1.5 32.5t4.5 33.5l97 451h191l-95 -446q-3 -14 -5 -28.5t-2 -27.5q0 -29 16 -45.5t47 -16.5q43 0 68 29t40 99l93 436h191l-97 -455q-19 -87 -55.5 -147t-99 -91t-158.5 -31zM273 767l25 115h325l-24 -115h-326z" />
    <glyph glyph-name="umacron" unicode="&#x16b;" horiz-adv-x="622" 
d="M193 -10q-51 0 -83.5 21.5t-47.5 57t-15 78.5q0 28 3.5 57t8.5 55l62 294h189l-63 -301q-3 -13 -6 -32.5t-3 -36.5q0 -21 11 -31.5t26 -10.5q25 0 49.5 34.5t40.5 108.5l57 269h189l-117 -553h-151l6 77h-4q-27 -47 -63 -67t-89 -20zM204 606l25 115h325l-24 -115h-326z
" />
    <glyph glyph-name="Ubreve" unicode="&#x16c;" horiz-adv-x="701" 
d="M298 -10q-74 0 -127.5 27t-81.5 73.5t-28 106.5q0 15 1.5 32.5t4.5 33.5l97 451h191l-95 -446q-3 -14 -5 -28.5t-2 -27.5q0 -29 16 -45.5t47 -16.5q43 0 68 29t40 99l93 436h191l-97 -455q-19 -87 -55.5 -147t-99 -91t-158.5 -31zM439 767q-84 0 -129 42t-45 112
q0 17 4 27h106q0 -31 22 -47t58 -16q31 0 58 12t40 51h108q-15 -89 -68 -135t-154 -46z" />
    <glyph glyph-name="ubreve" unicode="&#x16d;" horiz-adv-x="622" 
d="M193 -10q-51 0 -83.5 21.5t-47.5 57t-15 78.5q0 28 3.5 57t8.5 55l62 294h189l-63 -301q-3 -13 -6 -32.5t-3 -36.5q0 -21 11 -31.5t26 -10.5q25 0 49.5 34.5t40.5 108.5l57 269h189l-117 -553h-151l6 77h-4q-27 -47 -63 -67t-89 -20zM370 606q-84 0 -129 42t-45 112
q0 17 4 27h106q0 -31 22 -47t58 -16q31 0 58 12t40 51h108q-15 -89 -68 -135t-154 -46z" />
    <glyph glyph-name="Uring" unicode="&#x16e;" horiz-adv-x="701" 
d="M298 -10q-74 0 -127.5 27t-81.5 73.5t-28 106.5q0 15 1.5 32.5t4.5 33.5l97 451h191l-95 -446q-3 -14 -5 -28.5t-2 -27.5q0 -29 16 -45.5t47 -16.5q43 0 68 29t40 99l93 436h191l-97 -455q-19 -87 -55.5 -147t-99 -91t-158.5 -31zM450 765q-58 0 -94.5 33t-36.5 90
q0 58 36.5 91t94.5 33q55 0 93 -33t38 -90q0 -58 -37.5 -91t-93.5 -33zM450 847q17 0 30 11.5t13 29.5q0 19 -13 30.5t-30 11.5t-30 -11.5t-13 -30.5q0 -18 11.5 -29.5t31.5 -11.5z" />
    <glyph glyph-name="uring" unicode="&#x16f;" horiz-adv-x="622" 
d="M193 -10q-51 0 -83.5 21.5t-47.5 57t-15 78.5q0 28 3.5 57t8.5 55l62 294h189l-63 -301q-3 -13 -6 -32.5t-3 -36.5q0 -21 11 -31.5t26 -10.5q25 0 49.5 34.5t40.5 108.5l57 269h189l-117 -553h-151l6 77h-4q-27 -47 -63 -67t-89 -20zM381 604q-58 0 -94.5 33t-36.5 90
q0 58 36.5 91t94.5 33q55 0 93 -33t38 -90q0 -58 -37.5 -91t-93.5 -33zM381 686q17 0 30 11.5t13 29.5q0 19 -13 30.5t-30 11.5t-30 -11.5t-13 -30.5q0 -18 11.5 -29.5t31.5 -11.5z" />
    <glyph glyph-name="Uhungarumlaut" unicode="&#x170;" horiz-adv-x="701" 
d="M298 -10q-74 0 -127.5 27t-81.5 73.5t-28 106.5q0 15 1.5 32.5t4.5 33.5l97 451h191l-95 -446q-3 -14 -5 -28.5t-2 -27.5q0 -29 16 -45.5t47 -16.5q43 0 68 29t40 99l93 436h191l-97 -455q-19 -87 -55.5 -147t-99 -91t-158.5 -31zM501 767v14q14 19 33 44.5t37.5 52.5
t30.5 49h182v-10q-8 -13 -30 -33t-50.5 -42t-56 -42t-47.5 -33h-99zM275 767v14q15 19 35 44.5t39 52.5t32 49h181v-10q-8 -13 -30.5 -33t-52 -42t-58 -42t-47.5 -33h-99z" />
    <glyph glyph-name="uhungarumlaut" unicode="&#x171;" horiz-adv-x="622" 
d="M193 -10q-51 0 -83.5 21.5t-47.5 57t-15 78.5q0 28 3.5 57t8.5 55l62 294h189l-63 -301q-3 -13 -6 -32.5t-3 -36.5q0 -21 11 -31.5t26 -10.5q25 0 49.5 34.5t40.5 108.5l57 269h189l-117 -553h-151l6 77h-4q-27 -47 -63 -67t-89 -20zM432 606v14q14 19 33 44.5t37.5 52.5
t30.5 49h182v-10q-8 -13 -30 -33t-50.5 -42t-56 -42t-47.5 -33h-99zM206 606v14q15 19 35 44.5t39 52.5t32 49h181v-10q-8 -13 -30.5 -33t-52 -42t-58 -42t-47.5 -33h-99z" />
    <glyph glyph-name="Uogonek" unicode="&#x172;" horiz-adv-x="701" 
d="M298 -10q-74 0 -127.5 27t-81.5 73.5t-28 106.5q0 15 1.5 32.5t4.5 33.5l97 451h191l-95 -446q-3 -14 -5 -28.5t-2 -27.5q0 -29 16 -45.5t47 -16.5q43 0 68 29t40 99l93 436h191l-97 -455q-19 -87 -55.5 -147t-99 -91t-158.5 -31zM285 -256q-59 0 -90.5 31t-31.5 74
q0 50 30 85.5t76 65.5h123q-39 -32 -66 -59.5t-27 -60.5q0 -10 6.5 -17.5t19.5 -7.5q16 0 29 3.5t28 8.5v-108q-22 -7 -43.5 -11t-53.5 -4z" />
    <glyph glyph-name="uogonek" unicode="&#x173;" horiz-adv-x="622" 
d="M193 -10q-51 0 -83.5 21.5t-47.5 57t-15 78.5q0 28 3.5 57t8.5 55l62 294h189l-63 -301q-3 -13 -6 -32.5t-3 -36.5q0 -21 11 -31.5t26 -10.5q25 0 49.5 34.5t40.5 108.5l57 269h189l-117 -553h-151l6 77h-4q-27 -47 -63 -67t-89 -20zM354 -256q-59 0 -90.5 31t-31.5 74
q0 50 30 85.5t76 65.5h123q-39 -32 -66 -59.5t-27 -60.5q0 -10 6.5 -17.5t19.5 -7.5q16 0 29 3.5t28 8.5v-108q-22 -7 -43.5 -11t-53.5 -4z" />
    <glyph glyph-name="Wcircumflex" unicode="&#x174;" horiz-adv-x="935" 
d="M98 0l-24 714h181l-5 -358q-1 -43 -3 -89t-6 -79h4q11 33 26.5 73t31.5 76l164 377h164v-387q0 -17 -0.5 -42.5t-1.5 -53t-3 -51.5h4q8 26 19 60t23.5 69t23.5 63l135 342h189l-310 -714h-225v274q0 38 1.5 80t4.5 83h-4q-15 -47 -31.5 -91t-35.5 -87l-110 -259h-212z
M320 767v11q23 21 50.5 47.5t54.5 53t46 48.5h218q10 -22 25 -49.5t31.5 -54t31.5 -45.5v-11h-130q-11 10 -25.5 25.5t-28 32l-22.5 27.5q-28 -22 -57 -43.5t-60 -41.5h-134z" />
    <glyph glyph-name="wcircumflex" unicode="&#x175;" horiz-adv-x="823" 
d="M82 0l-32 553h178v-270q0 -27 -2 -55t-4 -51h4q6 24 14 48.5t15 45.5l106 282h199l-14 -272q-1 -15 -2 -43t-5 -61h4q9 30 17.5 54.5t19.5 52.5l111 269h188l-263 -553h-206l7 219q1 38 4 89.5t8 91.5h-4q-11 -41 -26.5 -87t-26.5 -76l-91 -237h-199zM229 606v11
q23 21 50.5 47.5t54.5 53t46 48.5h218q10 -22 25 -49.5t31.5 -54t31.5 -45.5v-11h-130q-11 10 -25.5 25.5t-28 32l-22.5 27.5q-28 -22 -57 -43.5t-60 -41.5h-134z" />
    <glyph glyph-name="Ycircumflex" unicode="&#x176;" horiz-adv-x="604" 
d="M137 0l59 277l-116 437h197l44 -265l152 265h213l-299 -437l-59 -277h-191zM145 767v11q23 21 50.5 47.5t54.5 53t46 48.5h218q10 -22 25 -49.5t31.5 -54t31.5 -45.5v-11h-130q-11 10 -25.5 25.5t-28 32l-22.5 27.5q-28 -22 -57 -43.5t-60 -41.5h-134z" />
    <glyph glyph-name="ycircumflex" unicode="&#x177;" horiz-adv-x="544" 
d="M12 -240q-28 0 -46 2.5t-29 5.5v150q9 -2 23 -4t30 -2q44 0 70.5 18t47.5 56l11 20l-79 547h190l19 -254q2 -25 2 -48t-1 -45h4q7 22 16.5 49.5t17.5 45.5l109 252h203l-327 -623q-45 -86 -106 -128t-155 -42zM88 606v11q23 21 50.5 47.5t54.5 53t46 48.5h218
q10 -22 25 -49.5t31.5 -54t31.5 -45.5v-11h-130q-11 10 -25.5 25.5t-28 32l-22.5 27.5q-28 -22 -57 -43.5t-60 -41.5h-134z" />
    <glyph glyph-name="Ydieresis" unicode="&#x178;" horiz-adv-x="604" 
d="M137 0l59 277l-116 437h197l44 -265l152 265h213l-299 -437l-59 -277h-191zM506 775q-36 0 -59.5 12.5t-23.5 49.5q0 48 26 69.5t72 21.5q30 0 56 -11.5t26 -49.5q0 -41 -21 -66.5t-76 -25.5zM268 775q-36 0 -59.5 12.5t-23.5 49.5q0 48 26 69.5t72 21.5q20 0 39 -4.5
t31.5 -17.5t12.5 -39q0 -41 -21.5 -66.5t-76.5 -25.5z" />
    <glyph glyph-name="Zacute" unicode="&#x179;" horiz-adv-x="539" 
d="M-45 0l23 118l337 440h-234l33 156h481l-25 -120l-342 -438h265l-33 -156h-505zM279 767v11q34 29 72 71t66 78h214v-7q-11 -13 -36.5 -34t-57.5 -43.5t-64 -43t-55 -32.5h-139z" />
    <glyph glyph-name="zacute" unicode="&#x17a;" horiz-adv-x="485" 
d="M-20 0l21 108l245 299h-170l33 146h396l-26 -118l-242 -289h187l-32 -146h-412zM215 606v11q34 29 72 71t66 78h214v-7q-11 -13 -36.5 -34t-57.5 -43.5t-64 -43t-55 -32.5h-139z" />
    <glyph glyph-name="Zdotaccent" unicode="&#x17b;" horiz-adv-x="539" 
d="M-45 0l23 118l337 440h-234l33 156h481l-25 -120l-342 -438h265l-33 -156h-505zM381 767q-40 0 -66.5 14t-26.5 55q0 54 29 78t82 24q23 0 44 -5.5t35 -20.5t14 -43q0 -45 -24.5 -73.5t-86.5 -28.5z" />
    <glyph glyph-name="zdotaccent" unicode="&#x17c;" horiz-adv-x="485" 
d="M-20 0l21 108l245 299h-170l33 146h396l-26 -118l-242 -289h187l-32 -146h-412zM317 606q-40 0 -66.5 14t-26.5 55q0 54 29 78t82 24q23 0 44 -5.5t35 -20.5t14 -43q0 -45 -24.5 -73.5t-86.5 -28.5z" />
    <glyph glyph-name="Zcaron" unicode="&#x17d;" horiz-adv-x="539" 
d="M-45 0l23 118l337 440h-234l33 156h481l-25 -120l-342 -438h265l-33 -156h-505zM267 767q-10 22 -25 49.5t-31.5 54t-31.5 45.5v11h130q11 -10 25.5 -25.5t28 -32l22.5 -27.5q28 22 57 43.5t60 41.5h134v-11q-25 -21 -52.5 -47.5t-53 -53t-45.5 -48.5h-218z" />
    <glyph glyph-name="zcaron" unicode="&#x17e;" horiz-adv-x="485" 
d="M-20 0l21 108l245 299h-170l33 146h396l-26 -118l-242 -289h187l-32 -146h-412zM203 606q-10 22 -25 49.5t-31.5 54t-31.5 45.5v11h130q11 -10 25.5 -25.5t28 -32l22.5 -27.5q28 22 57 43.5t60 41.5h134v-11q-25 -21 -52.5 -47.5t-53 -53t-45.5 -48.5h-218z" />
    <glyph glyph-name="longs" unicode="&#x17f;" horiz-adv-x="367" 
d="M-18 -240q-26 0 -55 4t-46 9v148q13 -4 28 -6.5t29 -2.5q36 0 54.5 15t25.5 46l133 614q20 94 71 136t135 42q39 0 76 -7.5t62 -20.5l-52 -139q-14 7 -28.5 11t-30.5 4q-40 0 -51 -49l-133 -621q-12 -53 -37 -94.5t-69 -65t-112 -23.5z" />
    <glyph glyph-name="uni0180" unicode="&#x180;" horiz-adv-x="607" 
d="M321 -10q-42 0 -72.5 16.5t-59.5 54.5h-4l-24 -61h-150l124 587h-68l24 113h68l13 60h189l-13 -60h149l-24 -113h-150q-12 -47 -22.5 -76l-10.5 -29h4q20 24 43 43.5t69 19.5q42 0 78 -19.5t57.5 -63.5t21.5 -117q0 -40 -9 -88t-27.5 -95t-47.5 -86t-68.5 -62.5
t-89.5 -23.5zM277 142q26 0 47 28t33.5 72t12.5 92q0 26 -10.5 42.5t-31.5 16.5q-23 0 -40 -17.5t-28.5 -46t-17 -61.5t-5.5 -63q0 -26 10.5 -44.5t29.5 -18.5z" />
    <glyph glyph-name="uni0181" unicode="&#x181;" horiz-adv-x="776" 
d="M158 0l121 578h-20q-33 0 -51 -19t-18 -48q0 -7 1 -14t2 -11h-129q-2 8 -3 18t-1 20q0 84 55 137t173 53h259q115 0 165 -44t50 -112q0 -73 -37.5 -118t-107.5 -66v-4q43 -14 68.5 -49.5t25.5 -86.5q0 -84 -38.5 -135.5t-103.5 -75t-144 -23.5h-267zM442 440h35
q50 0 68.5 22t18.5 56q0 50 -62 50h-31zM381 149h40q43 0 70.5 24.5t27.5 58.5t-16.5 50.5t-56.5 16.5h-33z" />
    <glyph glyph-name="uni0182" unicode="&#x182;" horiz-adv-x="609" 
d="M16 0l150 714h422l-33 -156h-231l-22 -109h14q82 0 136 -26.5t80.5 -72.5t26.5 -104q0 -110 -72.5 -178t-218.5 -68h-252zM240 149h38q43 0 66 23.5t23 63.5q0 25 -16 44.5t-48 19.5h-33z" />
    <glyph glyph-name="uni0183" unicode="&#x183;" horiz-adv-x="604" 
d="M319 -10q-49 0 -78.5 21.5t-51.5 51.5h-4l-24 -63h-149l161 760h437l-30 -134h-247l-4 -15q-5 -17 -13 -48.5t-24 -75.5h4q20 23 45.5 41.5t65.5 18.5q41 0 76 -20t57 -63.5t22 -114.5q0 -44 -10 -93.5t-29.5 -96.5t-49 -85.5t-68 -61t-86.5 -22.5zM276 141q23 0 44.5 28
t35.5 70.5t14 83.5q0 73 -41 73q-23 0 -40.5 -18t-29 -47t-17 -62t-5.5 -63q0 -32 11.5 -48.5t27.5 -16.5z" />
    <glyph glyph-name="uni0184" unicode="&#x184;" horiz-adv-x="669" 
d="M312 -10q-75 0 -131.5 25.5t-88 71t-31.5 104.5q0 25 2.5 51t8.5 54l92 418h190l-54 -258h58q96 0 153.5 -26.5t83 -73t25.5 -104.5q0 -91 -41 -149t-111 -85.5t-156 -27.5zM328 141q39 0 69 21.5t30 68.5q0 20 -7 37t-27.5 27t-61.5 10h-63l-12 -62q-2 -10 -3 -22
t-1 -20q0 -24 19 -42t57 -18z" />
    <glyph glyph-name="uni0185" unicode="&#x185;" horiz-adv-x="607" 
d="M274 -10q-104 0 -157.5 55t-53.5 147q0 31 4.5 61.5t11.5 64.5l93 442h189l-24 -113q-11 -50 -23.5 -87.5t-20.5 -59.5h4q19 24 42 43.5t70 19.5q43 0 77.5 -20t55 -66.5t20.5 -124.5q0 -37 -9 -85t-29.5 -96.5t-54 -89.5t-82 -66t-113.5 -25zM277 142q22 0 40 20
t30.5 51t19 66t6.5 65q0 67 -42 67q-22 0 -39.5 -19.5t-30 -50.5t-19 -66t-6.5 -66q0 -67 41 -67z" />
    <glyph glyph-name="uni0186" unicode="&#x186;" horiz-adv-x="630" 
d="M349 724q89 0 148 -35t87.5 -97.5t28.5 -145.5q0 -64 -14 -129t-42.5 -124t-73.5 -105t-107 -72.5t-142 -26.5q-71 0 -128 17t-107 47l72 149q46 -27 84 -40.5t79 -13.5q44 0 78 24t58.5 65t37 92.5t12.5 106.5q0 65 -27.5 97.5t-78.5 32.5q-44 0 -85.5 -11t-94.5 -33
v158q52 23 106 33.5t109 10.5z" />
    <glyph glyph-name="uni0187" unicode="&#x187;" horiz-adv-x="630" 
d="M315 -10q-89 0 -148 35t-87.5 97.5t-28.5 145.5q0 64 14 129t42.5 124t73.5 105t107 72.5t142 26.5q32 0 53.5 -2t43.5 -6l3 11q25 88 67.5 125.5t107.5 37.5q30 0 48.5 -5.5t30.5 -10.5v-137q-12 4 -24 6.5t-31 2.5q-21 0 -37 -17t-26 -56l-43 -162q-49 25 -99 39.5
t-94 14.5t-78 -24t-58.5 -65t-37 -92.5t-12.5 -106.5q0 -65 27.5 -97.5t78.5 -32.5q44 0 85.5 11t94.5 33v-158q-52 -23 -106 -33.5t-109 -10.5z" />
    <glyph glyph-name="uni0188" unicode="&#x188;" horiz-adv-x="504" 
d="M247 -10q-56 0 -103 23t-75 73t-28 130q0 98 36.5 176.5t103 124.5t156.5 46q9 0 18 -1t18 -4l1 5q22 108 66 155t124 47q23 0 41.5 -5t32.5 -11l-1 -137q-9 2 -21 5.5t-31 3.5q-23 0 -40 -13.5t-24 -41.5l-41 -189q-22 15 -51 25.5t-61 10.5q-38 0 -64 -18.5t-42 -47
t-23.5 -60.5t-7.5 -59q0 -49 16.5 -67.5t44.5 -18.5q35 0 68 11t70 31v-150q-39 -21 -82 -32.5t-101 -11.5z" />
    <glyph glyph-name="uni0189" unicode="&#x189;" horiz-adv-x="684" 
d="M16 0l58 275h-69l34 156h68l60 283h210q132 0 204 -70t72 -200q0 -138 -46 -237.5t-134.5 -153t-215.5 -53.5h-241zM241 158h34q55 0 96.5 35t65 98t23.5 149q0 56 -26.5 87t-73.5 31h-35l-27 -127h87l-34 -156h-86z" />
    <glyph glyph-name="uni018A" unicode="&#x18a;" horiz-adv-x="816" 
d="M148 0l119 563h-24q-35 0 -56 -19t-21 -64q0 -15 1 -21h-135q-3 12 -3 29q0 113 62.5 169.5t181.5 56.5h229q131 0 207 -69t76 -201q0 -138 -48.5 -237.5t-139.5 -153t-219 -53.5h-230zM373 158h34q55 0 96.5 34.5t65 97t23.5 144.5q0 61 -26.5 92.5t-73.5 31.5h-35z" />
    <glyph glyph-name="uni018B" unicode="&#x18b;" horiz-adv-x="608" 
d="M282 0q-94 0 -152 28t-84.5 76.5t-26.5 111.5q0 64 27 109.5t72 74.5t100.5 42.5t112.5 13.5h39l20 107h-249l32 151h440l-151 -714h-180zM284 151h20l32 154h-15q-53 0 -82 -22t-29 -62q0 -32 19.5 -51t54.5 -19z" />
    <glyph glyph-name="uni018C" unicode="&#x18c;" horiz-adv-x="603" 
d="M202 -10q-71 0 -116 50.5t-45 157.5q0 64 17 126.5t49 112.5t76.5 80t100.5 30q41 0 70.5 -16t49.5 -42h4q-2 14 -1 41t6 55l8 41h-244l29 134h433l-161 -760h-150l4 60h-3q-22 -33 -52 -51.5t-75 -18.5zM274 142q25 0 43.5 22t30.5 54t18 65t6 54q0 64 -48 64
q-24 0 -44.5 -26.5t-33 -69.5t-12.5 -92q0 -33 10 -52t30 -19z" />
    <glyph glyph-name="uni018D" unicode="&#x18d;" horiz-adv-x="599" 
d="M343 564q80 0 130 -25t73.5 -69.5t23.5 -101.5q0 -100 -57.5 -165t-154.5 -99q24 -23 43.5 -58.5t19.5 -82.5q0 -61 -33 -99t-88.5 -56.5t-120.5 -18.5q-69 0 -119.5 13t-99.5 41l75 135q41 -27 80 -39t66 -12q31 0 42 12.5t11 26.5q0 13 -6.5 25t-23 29.5t-48.5 44.5
q-56 48 -81 99t-25 112q0 84 33 149t98.5 102t161.5 37zM331 422q-35 0 -63 -38.5t-28 -99.5q0 -32 12.5 -56t28.5 -37q44 22 71.5 64t27.5 97q0 33 -12.5 51.5t-36.5 18.5z" />
    <glyph glyph-name="uni018E" unicode="&#x18e;" horiz-adv-x="562" 
d="M5 0l32 155h233l31 149h-217l35 155h217l20 98h-233l33 157h424l-151 -714h-424z" />
    <glyph glyph-name="uni018F" unicode="&#x18f;" horiz-adv-x="640" 
d="M227 -10q-103 0 -157 52t-54 135q0 120 94.5 185t272.5 65h33v18q0 68 -32 95t-74 27q-41 0 -83 -8t-92 -26v158q47 17 101 25.5t109 8.5q89 0 148 -35t87.5 -97.5t28.5 -145.5t-24 -164.5t-72 -147.5t-119.5 -105.5t-166.5 -39.5zM255 148q28 0 55.5 18.5t48.5 49
t31 67.5h-47q-75 0 -107 -26.5t-32 -60.5q0 -21 11 -34.5t40 -13.5z" />
    <glyph glyph-name="uni0190" unicode="&#x190;" horiz-adv-x="636" 
d="M297 -10q-137 0 -212 52t-75 144q0 83 64.5 134.5t185.5 58.5v4q-71 8 -118 43t-47 98q0 50 20 84.5t53 57t72.5 35.5t80.5 18t75 5q98 0 166 -23t112 -59l-85 -125q-35 27 -80.5 43t-98.5 16q-73 0 -97.5 -18t-24.5 -45q0 -21 17.5 -36.5t60 -24.5t117.5 -9h35l-32 -142
h-43q-118 0 -179 -21.5t-61 -69.5q0 -41 39.5 -58t107.5 -17q48 0 101.5 10.5t104.5 32.5v-146q-32 -14 -68 -23t-82 -14t-109 -5z" />
    <glyph glyph-name="uni0191" unicode="&#x191;" horiz-adv-x="569" 
d="M-10 -240q-28 0 -54.5 4t-39.5 9v136q23 -7 50 -7q26 0 40.5 12t20.5 41l159 759h422l-33 -155h-230l-28 -136h213l-34 -156h-214l-66 -320q-15 -75 -40 -115.5t-65 -56t-101 -15.5z" />
    <glyph glyph-name="florin" unicode="&#x192;" horiz-adv-x="580" 
d="M75 -240q-26 0 -55 4t-46 9v150q18 -6 31 -7.5t26 -1.5q29 0 51.5 13.5t29.5 47.5l81 385h-74l19 99l87 44l10 43q23 98 76 138t138 40q40 0 70.5 -7t59.5 -21l-51 -138q-14 7 -29 11.5t-34 4.5t-29 -9.5t-13 -21.5l-9 -38h102l-32 -145h-101l-89 -417q-10 -46 -34 -88
t-69 -68.5t-116 -26.5z" />
    <glyph glyph-name="uni0193" unicode="&#x193;" horiz-adv-x="698" 
d="M319 -10q-121 0 -194.5 71.5t-73.5 213.5q0 86 25.5 166.5t77 144.5t130 101.5t185.5 37.5q19 0 38.5 -1.5t39.5 -3.5l5 19q22 82 67.5 117t106.5 35q29 0 47 -5.5t30 -10.5v-137q-11 4 -23.5 6.5t-30.5 2.5q-22 0 -37.5 -17t-25.5 -56l-43 -154q-50 22 -92.5 34
t-83.5 12q-63 0 -105.5 -29t-68.5 -73.5t-37.5 -94t-11.5 -91.5q0 -68 26 -98.5t76 -30.5q20 0 33 1.5t32 5.5l25 113h-112l33 149h298l-82 -388q-51 -16 -112.5 -28t-141.5 -12z" />
    <glyph glyph-name="uni0194" unicode="&#x194;" horiz-adv-x="617" 
d="M251 -240q-68 0 -107 37t-39 104q0 49 29.5 109.5t73.5 124.5l-128 579h185l48 -261q3 -15 7 -43.5t6.5 -58t2.5 -46.5q11 30 25.5 70t31.5 73l134 266h194l-321 -571q30 -90 30 -178q0 -101 -42 -153t-130 -52zM254 -145q23 0 32 23.5t9 52.5q0 44 -16 86
q-29 -38 -42 -72.5t-13 -49.5q0 -40 30 -40z" />
    <glyph glyph-name="uni0195" unicode="&#x195;" horiz-adv-x="920" 
d="M573 -10q-103 0 -160 44t-57 132q0 20 3 44.5t7 42.5l12 56q3 13 5 28.5t2 29.5q0 19 -7.5 32.5t-29.5 13.5q-26 0 -43 -19t-27.5 -47t-16.5 -56.5t-10 -46.5l-51 -244h-188l161 760h188l-27 -131q-12 -53 -23 -82t-19 -53h4q33 46 71.5 57t73.5 11q61 0 99.5 -42.5
t38.5 -117.5q0 -14 -1.5 -30.5t-5.5 -33.5l-16 -74q-4 -19 -7 -37.5t-3 -32.5q0 -54 37 -54q26 0 49.5 29.5t39.5 106.5l56 277h185l-60 -299q-19 -86 -52 -145t-88.5 -89t-139.5 -30z" />
    <glyph glyph-name="uni0196" unicode="&#x196;" horiz-adv-x="399" 
d="M197 -10q-73 0 -114 26t-41 102q0 13 3 33.5t7 37.5l114 525h189l-109 -506q-6 -28 -6 -41q0 -25 26 -25q17 0 38.5 3.5t44.5 12.5v-139q-61 -29 -152 -29z" />
    <glyph glyph-name="uni0197" unicode="&#x197;" horiz-adv-x="426" 
d="M-36 0l23 109l94 39l27 129h-92l34 150h90l29 135l-78 42l23 110h367l-23 -110l-98 -42l-29 -135h94l-35 -150h-91l-27 -129l79 -39l-23 -109h-364z" />
    <glyph glyph-name="uni0198" unicode="&#x198;" horiz-adv-x="669" 
d="M16 0l151 714h191l-66 -305l82 124l54 75q30 43 58.5 69.5t64 38.5t86.5 12q27 0 44.5 -5t32.5 -12v-148q-8 5 -22 8t-31 3q-21 0 -38.5 -14t-28.5 -28l-120 -147l132 -385h-214l-85 282l-47 -27l-53 -255h-191z" />
    <glyph glyph-name="uni0199" unicode="&#x199;" horiz-adv-x="617" 
d="M11 0l121 578q20 94 72 142t140 48q33 0 55.5 -6t30.5 -10l1 -137q-7 2 -19.5 6t-29.5 4q-22 0 -40 -15t-23 -42l-28 -132q-6 -27 -16.5 -59.5t-16.5 -49.5h4l193 226h216l-240 -250l134 -303h-214l-68 191l-49 -26l-34 -165h-189z" />
    <glyph glyph-name="uni019A" unicode="&#x19a;" horiz-adv-x="325" 
d="M11 0l60 282h-86l31 138h84l72 340h189l-72 -340h86l-30 -138h-85l-60 -282h-189z" />
    <glyph glyph-name="uni019B" unicode="&#x19b;" horiz-adv-x="604" 
d="M450 -10q-74 0 -107.5 41.5t-44.5 114.5l-7 46q-3 19 -5.5 46t-2.5 41q-7 -22 -17 -46.5t-24 -50.5l-92 -182h-204l291 513v4l-80 -24l-26 89l82 25q-14 17 -37 17q-12 0 -25 -2.5t-24 -4.5l-23 136q51 13 115 13q129 0 174 -105l88 26l25 -89l-89 -27l45 -297
q8 -54 17 -82.5t21.5 -39t30.5 -10.5q13 0 33 5v-139q-20 -8 -46 -13t-68 -5z" />
    <glyph glyph-name="uni019C" unicode="&#x19c;" horiz-adv-x="1018" 
d="M215 -10q-71 0 -115.5 43t-44.5 129q0 22 3.5 47.5t7.5 46.5l98 458h190l-96 -461q-4 -14 -5.5 -27.5t-1.5 -25.5q0 -28 13 -41.5t32 -13.5q34 0 56.5 23.5t36 58.5t20.5 68l87 419h191l-93 -436q-4 -18 -7.5 -38.5t-3.5 -41.5q0 -53 49 -53q38 0 60 24.5t35 62.5t21 78
l86 404h189l-151 -714h-163l9 98h-6q-22 -46 -62 -77t-106 -31q-56 0 -93.5 23.5t-51.5 84.5h-6q-33 -57 -79 -82.5t-99 -25.5z" />
    <glyph glyph-name="uni019D" unicode="&#x19d;" horiz-adv-x="790" 
d="M-10 -240q-26 0 -50.5 4t-42.5 9v136q5 -1 19.5 -4t28.5 -3q29 0 42 12.5t18 34.5l162 765h222l140 -480h4l7.5 55t10 67t10.5 59l64 299h170l-151 -714h-222l-141 502h-4q-1 -10 -3.5 -33.5t-6 -54t-8.5 -61.5t-10 -55l-73 -345q-16 -77 -40.5 -118.5t-60 -58
t-85.5 -16.5z" />
    <glyph glyph-name="uni019E" unicode="&#x19e;" horiz-adv-x="622" 
d="M263 -240l112 542q3 13 6 32.5t3 36.5q0 21 -11 31.5t-26 10.5q-24 0 -39.5 -12.5t-27.5 -43.5t-23 -87l-57 -270h-189l117 553h151l-6 -77h4q27 46 63 66.5t89 20.5q51 0 83.5 -21.5t47.5 -57.5t15 -78q0 -28 -3.5 -57t-8.5 -55l-111 -534h-189z" />
    <glyph glyph-name="uni019F" unicode="&#x19f;" horiz-adv-x="737" 
d="M325 -10q-137 0 -205.5 75t-68.5 200q0 83 23.5 164.5t71 148.5t120.5 107t172 40q132 0 200 -75.5t68 -199.5q0 -83 -22.5 -164.5t-69.5 -148.5t-118.5 -107t-170.5 -40zM268 442h255v9q0 55 -25.5 90.5t-75.5 35.5t-89 -36.5t-65 -98.5zM342 138q58 0 97 45t60 111
h-264q-1 -8 -1 -14.5v-13.5q0 -128 108 -128z" />
    <glyph glyph-name="Ohorn" unicode="&#x1a0;" horiz-adv-x="803" 
d="M325 -10q-137 0 -205.5 75t-68.5 200q0 83 23.5 164.5t71 148.5t120.5 107t172 40q75 0 130 -25.5t88 -71.5q12 16 30 50.5t26 81.5h185l6 -13q-31 -95 -84 -149t-119 -79q6 -33 6 -69q0 -83 -22.5 -164.5t-69.5 -148.5t-118.5 -107t-170.5 -40zM342 148q48 0 87 41
t61.5 109t22.5 150q0 56 -23.5 87.5t-67.5 31.5q-40 0 -73 -26.5t-56.5 -70t-36 -97t-12.5 -107.5q0 -118 98 -118z" />
    <glyph glyph-name="ohorn" unicode="&#x1a1;" horiz-adv-x="707" 
d="M254 -10q-102 0 -157.5 55.5t-55.5 157.5q0 71 20 135.5t59 115t97.5 80t135.5 29.5q114 0 170 -70q25 10 41 33.5t25 52.5t14 56h178l6 -12q-17 -61 -43.5 -106.5t-70 -78t-109.5 -52.5q1 -9 1.5 -18t0.5 -18q0 -71 -20 -135.5t-59 -115t-97.5 -80t-135.5 -29.5z
M275 132q28 0 50 33.5t35 85t13 105.5q0 65 -42 65q-28 0 -50 -33.5t-34.5 -84.5t-12.5 -106q0 -65 41 -65z" />
    <glyph glyph-name="uni01A2" unicode="&#x1a2;" horiz-adv-x="1094" 
d="M325 -10q-137 0 -205.5 75t-68.5 200q0 83 23.5 164.5t71 148.5t120.5 107t172 40q72 0 125 -23t87 -66q50 47 97 68t109 21q50 0 95.5 -23t74 -66t28.5 -103q0 -31 -5 -57t-9 -45l-92 -431h-184l92 433q4 16 6.5 32.5t2.5 30.5q0 36 -20.5 56t-58.5 20q-22 0 -47 -10
t-42 -27q9 -39 9 -85q0 -83 -22.5 -164.5t-69.5 -148.5t-118.5 -107t-170.5 -40zM342 148q48 0 87 41t61.5 109t22.5 150q0 56 -23.5 87.5t-67.5 31.5q-40 0 -73 -26.5t-56.5 -70t-36 -97t-12.5 -107.5q0 -118 98 -118z" />
    <glyph glyph-name="uni01A3" unicode="&#x1a3;" horiz-adv-x="958" 
d="M600 -240l108 524q4 18 6.5 34.5t2.5 32.5q0 37 -20.5 51.5t-51.5 14.5q-25 0 -45.5 -9.5t-35.5 -18.5q1 -9 1.5 -19t0.5 -20q0 -71 -20 -135.5t-59 -115t-97.5 -80t-135.5 -29.5q-102 0 -157.5 55.5t-55.5 157.5q0 71 20 135.5t59 115t97.5 80t135.5 29.5q120 0 174 -75
q47 40 89 57t92 17q100 0 150 -50t50 -129q0 -24 -5 -54.5t-9 -47.5l-108 -521h-186zM275 132q28 0 50 33.5t35 85t13 105.5q0 65 -42 65q-28 0 -50 -33.5t-34.5 -84.5t-12.5 -106q0 -65 41 -65z" />
    <glyph glyph-name="uni01A4" unicode="&#x1a4;" horiz-adv-x="757" 
d="M150 0l119 563h-25q-35 0 -56.5 -20.5t-21.5 -56.5q0 -22 1 -27h-135q-1 7 -2 15t-1 25q0 100 61.5 157.5t182.5 57.5h210q95 0 152.5 -28.5t83.5 -77t26 -108.5q0 -86 -39.5 -144.5t-110.5 -88.5t-163 -30h-42l-49 -237h-191zM424 393h31q45 0 72 28.5t27 72.5
q0 25 -15.5 44.5t-50.5 19.5h-29z" />
    <glyph glyph-name="uni01A5" unicode="&#x1a5;" horiz-adv-x="607" 
d="M-40 -240l173 818q20 93 71.5 141.5t138.5 48.5q33 0 55.5 -6t31.5 -10v-137q-7 2 -19.5 6t-28.5 4q-22 0 -38.5 -11.5t-23.5 -33.5l-4 -15q-8 -28 -15.5 -46.5l-7.5 -18.5h4q21 28 47 45.5t64 17.5q72 0 115 -53.5t43 -150.5q0 -69 -17.5 -134.5t-49.5 -118.5t-78 -84.5
t-103 -31.5q-38 0 -66 19.5t-47 51.5h-4q-3 -39 -8 -78t-19 -103l-25 -120h-189zM280 142q26 0 47 30t33.5 76t12.5 93q0 70 -42 70q-22 0 -39 -19t-29.5 -49t-19 -64.5t-6.5 -66.5t11.5 -51t31.5 -19z" />
    <glyph glyph-name="uni01A6" unicode="&#x1a6;" horiz-adv-x="633" 
d="M358 -100l-101 262h-17l-33 -162h-192l151 714h191l-21 -100h10q88 0 137.5 -28.5t69.5 -74.5t20 -99q0 -60 -22.5 -103.5t-55.5 -71t-64 -41.5l133 -296h-206zM272 312h11q39 0 68 19.5t29 70.5q0 28 -16 45t-53 17h-8z" />
    <glyph glyph-name="uni01A7" unicode="&#x1a7;" horiz-adv-x="548" 
d="M245 -10q-77 0 -127 26t-73.5 69t-23.5 96q0 69 25 117t67 79t92 51q37 14 73.5 26.5t61 30.5t24.5 47q0 39 -56 39q-22 0 -42.5 -4.5t-47 -14t-64.5 -24.5l-52 140q43 18 78 30.5t71 19t83 6.5q62 0 109 -23t73.5 -65t26.5 -98q0 -72 -28 -115.5t-77.5 -72t-116.5 -56.5
q-27 -10 -54 -23t-45.5 -31.5t-18.5 -44.5q0 -53 65 -53q34 0 63 6t61 17.5t76 27.5v-153q-51 -23 -104.5 -36.5t-118.5 -13.5z" />
    <glyph glyph-name="uni01A8" unicode="&#x1a8;" horiz-adv-x="501" 
d="M232 -10q-110 0 -163 44t-53 118q0 70 39.5 114t134.5 76q44 15 67.5 24.5t33 17.5t9.5 21q0 15 -11.5 20t-34.5 5q-39 0 -78.5 -14t-70.5 -28l-47 126q62 26 111.5 37t104.5 11q103 0 155 -40.5t52 -112.5q0 -55 -19.5 -89.5t-56.5 -57.5t-90 -42q-61 -22 -89.5 -35
t-28.5 -33q0 -19 15.5 -25t41.5 -6q33 0 73 8t97 34l1 -132q-34 -14 -63 -23t-59.5 -13.5t-70.5 -4.5z" />
    <glyph glyph-name="uni01A9" unicode="&#x1a9;" horiz-adv-x="552" 
d="M-30 0l28 137l249 235l-150 207l29 135h461l-33 -156h-238l142 -198l-214 -204h252l-32 -156h-494z" />
    <glyph glyph-name="uni01AA" unicode="&#x1aa;" horiz-adv-x="425" 
d="M174 -239q-76 0 -115.5 27t-39.5 97q0 21 5.5 51t10.5 52l110 525h7q-35 0 -65 12t-48.5 37.5t-18.5 64.5q0 59 42 96t127 37q77 0 117.5 -35.5t40.5 -106.5q0 -22 -3 -51t-12 -71l-103 -488q-5 -20 -8.5 -38t-3.5 -27q0 -13 6.5 -21.5t28.5 -8.5q20 0 41 5t33 11v-140
q-26 -11 -65 -19.5t-87 -8.5zM154 592h9l5 25q2 7 3 14t1 16q0 13 -9 20t-22 7q-19 0 -30 -13t-11 -30q0 -21 14.5 -30t39.5 -9z" />
    <glyph glyph-name="uni01AB" unicode="&#x1ab;" horiz-adv-x="457" 
d="M162 -240q-27 0 -47.5 3.5t-39.5 10.5l-1 122q9 -4 27 -6.5t35 -2.5q27 0 44 13.5t22 45.5l8 44q-82 0 -119.5 31t-37.5 102q0 20 3.5 46t8.5 46l41 196h-75l20 93l106 43l67 117h126l-24 -111h141l-31 -142h-141l-41 -187q-3 -14 -5.5 -28.5t-2.5 -22.5q0 -31 40 -31
q27 0 54 4.5t54 11.5l-51 -241q-9 -41 -31 -77t-59 -58t-91 -22z" />
    <glyph glyph-name="uni01AC" unicode="&#x1ac;" horiz-adv-x="602" 
d="M165 0l118 561h-37q-42 0 -61 -22t-19 -59q0 -15 1 -21h-135q-3 12 -3 29q0 106 58.5 166t185.5 60h389l-35 -158h-155l-116 -556h-191z" />
    <glyph glyph-name="uni01AD" unicode="&#x1ad;" horiz-adv-x="457" 
d="M200 -10q-72 0 -109.5 31t-37.5 102q0 20 3.5 46t8.5 46l41 196h-75l20 93l84 35l9 42q23 101 77.5 142.5t136.5 41.5q39 0 65.5 -6t40.5 -12v-137q-12 4 -31 8.5t-40 4.5q-51 0 -63 -52l-4 -18h141l-31 -142h-141l-41 -187q-3 -14 -5.5 -28.5t-2.5 -22.5q0 -17 9 -24
t22 -7q19 0 42 6.5t47 16.5v-142q-31 -15 -71.5 -24t-94.5 -9z" />
    <glyph glyph-name="uni01AE" unicode="&#x1ae;" horiz-adv-x="552" 
d="M278 -240q-82 0 -129 35.5t-47 107.5q0 20 3.5 44t9.5 53l116 556h-155l34 158h502l-35 -158h-155l-116 -556q-3 -14 -6.5 -29.5t-3.5 -28.5q0 -24 11 -32t26 -8q19 0 35 4t23 6v-136q-15 -4 -46 -10t-67 -6z" />
    <glyph glyph-name="Uhorn" unicode="&#x1af;" horiz-adv-x="810" 
d="M281 -10q-69 0 -118.5 28t-75.5 76t-26 106q0 32 6 63l97 451h191l-95 -446q-3 -14 -5 -28.5t-2 -27.5q0 -29 14 -45.5t45 -16.5q43 0 70 29t42 99l93 436h191l-18 -86q40 15 57 48.5t22 83.5h185l6 -13q-15 -43 -37.5 -83.5t-56.5 -73.5t-83 -53.5t-118 -22.5l-54 -255
q-28 -131 -106 -200t-224 -69z" />
    <glyph glyph-name="uhorn" unicode="&#x1b0;" horiz-adv-x="768" 
d="M193 -10q-51 0 -83.5 21.5t-47.5 57t-15 78.5q0 28 3.5 57t8.5 55l62 294h189l-63 -301q-3 -13 -6 -32.5t-3 -36.5q0 -21 11 -31.5t26 -10.5q25 0 49.5 34.5t40.5 108.5l57 269h189l-11 -49q42 13 55.5 44.5t22.5 85.5h186l6 -13q-15 -43 -37.5 -83.5t-56 -73.5
t-82.5 -53.5t-118 -22.5l-82 -388h-151l6 77h-4q-27 -47 -63 -67t-89 -20z" />
    <glyph glyph-name="uni01B1" unicode="&#x1b1;" horiz-adv-x="773" 
d="M374 -11q-97 0 -166 32.5t-106 92.5t-37 141q0 118 54.5 193.5t151.5 107.5h-189l34 158h321l-40 -181q-63 -35 -101 -98.5t-38 -148.5q0 -70 32 -104.5t91 -34.5q52 0 85 22t51 56.5t25 73.5t7 74q0 56 -16 95.5t-46 64.5l40 181h321l-33 -158h-189q28 -18 54.5 -48
t44 -73t17.5 -100q0 -109 -45.5 -186.5t-128 -118.5t-194.5 -41z" />
    <glyph glyph-name="uni01B2" unicode="&#x1b2;" horiz-adv-x="701" 
d="M298 -10q-74 0 -127.5 27t-81.5 73.5t-28 106.5q0 15 1.5 32.5t4.5 33.5l97 451h191l-95 -446q-3 -14 -5 -28.5t-2 -27.5q0 -29 16 -45.5t47 -16.5q43 0 68 29t40 99l48 222q2 11 3.5 20.5t1.5 19.5q0 33 -29 33q-18 0 -37 -11v142q57 21 117 21q58 0 89 -21.5t42.5 -54
t11.5 -65.5q0 -26 -3.5 -50t-7.5 -46l-49 -229q-19 -87 -55.5 -147t-99 -91t-158.5 -31z" />
    <glyph glyph-name="uni01B3" unicode="&#x1b3;" horiz-adv-x="655" 
d="M188 0l59 277l-44 164q-14 57 -25 85t-23.5 37t-32.5 9q-7 0 -20 -3t-22 -7v143q16 7 47 13.5t56 6.5q53 0 84 -17.5t48 -49.5t27 -75l30 -134l152 265h213l-299 -437l-59 -277h-191z" />
    <glyph glyph-name="uni01B4" unicode="&#x1b4;" horiz-adv-x="599" 
d="M12 -240q-28 0 -46 2.5t-29 5.5v150q9 -2 23 -4t30 -2q44 0 70.5 18t47.5 56l11 20l-79 547h190l21 -274q1 -11 1 -31v-42h4q6 22 12 45t22 60l31 65q22 46 51 88.5t71.5 70t106.5 27.5q22 0 48.5 -3.5t50.5 -10.5l-28 -146q-11 2 -20.5 3.5t-17.5 1.5q-35 0 -57 -19.5
t-41 -57.5l-212 -400q-45 -85 -106 -127.5t-155 -42.5z" />
    <glyph glyph-name="uni01B5" unicode="&#x1b5;" horiz-adv-x="539" 
d="M-45 0l23 118l113 147h-73l35 155h156l106 138h-234l33 156h481l-25 -120l-136 -174h85l-35 -155h-171l-85 -109h265l-33 -156h-505z" />
    <glyph glyph-name="uni01B6" unicode="&#x1b6;" horiz-adv-x="485" 
d="M-20 0l21 108l94 115h-59l24 112h127l59 72h-170l33 146h396l-26 -118l-84 -100h62l-25 -112h-131l-64 -77h187l-32 -146h-412z" />
    <glyph glyph-name="uni01B7" unicode="&#x1b7;" horiz-adv-x="574" 
d="M201 -10q-63 0 -118 10t-83 29v159q36 -22 85 -34t95 -12q40 0 73 6.5t53 25t20 55.5q0 35 -28.5 51.5t-106.5 16.5h-66l26 113l167 148h-205l33 156h441l-25 -120l-189 -174q73 -16 109.5 -66t36.5 -125q0 -70 -33.5 -124t-103.5 -84.5t-181 -30.5z" />
    <glyph glyph-name="uni01B8" unicode="&#x1b8;" horiz-adv-x="572" 
d="M307 -10q-89 0 -151.5 27t-95 73.5t-32.5 106.5q0 78 33 126.5t90.5 72.5t131.5 28l-151 171l25 119h476l-33 -156h-239l131 -148l-27 -113h-66q-82 0 -130.5 -16t-48.5 -66q0 -36 32.5 -55t80.5 -19q50 0 92 10.5t94 34.5l-1 -157q-47 -19 -94.5 -29t-116.5 -10z" />
    <glyph glyph-name="uni01B9" unicode="&#x1b9;" horiz-adv-x="567" 
d="M272 -240q-88 0 -151.5 30.5t-97.5 83t-34 119.5q0 108 80 179t221 86l-156 177l24 117h469l-33 -141h-245l139 -150l-28 -137h-50q-104 0 -163 -30t-59 -94q0 -41 31 -65t83 -24q77 0 183 53v-159q-37 -15 -67 -25t-63.5 -15t-82.5 -5z" />
    <glyph glyph-name="uni01BA" unicode="&#x1ba;" horiz-adv-x="596" 
d="M180 -240q-60 0 -107 17t-73.5 52t-26.5 89q0 89 66 139t174 56q68 4 90 11.5t22 24.5q0 16 -22.5 22t-90.5 6h-75l28 122l139 116h-200l32 137h435l-27 -114l-160 -130q64 -14 97.5 -48t33.5 -95q0 -56 -27 -98t-94.5 -68.5t-188.5 -35.5q-32 -2 -56 -8.5t-24 -28.5
q0 -20 23 -27.5t62 -7.5q73 0 135 14.5t104 27.5v-129q-29 -11 -73 -21t-94.5 -16.5t-101.5 -6.5z" />
    <glyph glyph-name="uni01BB" unicode="&#x1bb;" horiz-adv-x="564" 
d="M-28 0l25 120l198 187h-162l25 112h259q37 37 59.5 71t22.5 63q0 31 -17 44t-41 13q-36 0 -69 -20.5t-86 -64.5l-92 125q57 49 122.5 82t155.5 33q72 0 120.5 -24.5t73.5 -65.5t25 -90t-21.5 -95t-47.5 -71h47l-25 -112h-132l-152 -148v-5h253l-34 -154h-507z" />
    <glyph glyph-name="uni01BC" unicode="&#x1bc;" horiz-adv-x="577" 
d="M185 -10q-57 0 -109 11t-81 31v154q19 -12 51 -22t68 -16.5t68 -6.5q68 0 113.5 25t45.5 75q0 33 -26.5 50.5t-93.5 17.5h-119l58 253h-81l35 152h502l-33 -152h-238l-24 -97h6q63 0 109.5 -25t72.5 -70.5t26 -107.5q0 -78 -27.5 -130.5t-76 -83.5t-111.5 -44.5
t-135 -13.5z" />
    <glyph glyph-name="uni01BD" unicode="&#x1bd;" horiz-adv-x="585" 
d="M206 -10q-36 0 -75 5t-74 13.5t-57 19.5v143q20 -11 52 -20.5t67 -15.5t64 -6q80 0 115 12.5t35 34.5q0 20 -27.5 27t-94.5 7h-107l46 208h-96l30 134h506l-29 -134h-240l-20 -86h14q59 0 107 -13t76.5 -44t28.5 -83q0 -100 -75.5 -151t-245.5 -51z" />
    <glyph glyph-name="uni01BE" unicode="&#x1be;" horiz-adv-x="504" 
d="M187 -10q-47 0 -96.5 8.5t-75.5 22.5v152q31 -17 70.5 -30.5t82.5 -13.5q44 0 59.5 9.5t15.5 29.5q0 16 -14.5 31t-34.5 32q-16 13 -32.5 30t-27.5 40t-11 58q0 7 0.5 15.5t1.5 15.5l4 21h-98l20 93l105 43l68 117h126l-24 -111h141l-32 -142h-137l-1 -4q-1 -5 -1.5 -10
t-0.5 -10q0 -32 35 -56q26 -18 50.5 -39t39.5 -48.5t15 -65.5q0 -33 -12.5 -66.5t-41 -61t-76 -44t-118.5 -16.5z" />
    <glyph glyph-name="uni01BF" unicode="&#x1bf;" horiz-adv-x="609" 
d="M-41 -240l169 793h151l-6 -62h4q23 34 51.5 52.5t81.5 18.5q65 0 110.5 -49t45.5 -146q0 -60 -21 -123.5t-65.5 -120.5t-115.5 -96.5t-171 -50.5l-45 -216h-189zM228 131q40 8 73 37.5t52.5 74.5t19.5 98q0 34 -9 52.5t-30 18.5q-18 0 -31 -14.5t-25 -50t-25 -97.5z" />
    <glyph glyph-name="uni01C0" unicode="&#x1c0;" horiz-adv-x="338" 
d="M48 0l160 760h126l-160 -760h-126z" />
    <glyph glyph-name="uni01C1" unicode="&#x1c1;" horiz-adv-x="593" 
d="M48 0l160 760h126l-160 -760h-126zM303 0l160 760h126l-160 -760h-126z" />
    <glyph glyph-name="uni01C2" unicode="&#x1c2;" horiz-adv-x="516" 
d="M134 0l52 242h-154l23 111h154l17 80h-154l24 111h154l46 216h128l-46 -216h155l-24 -111h-155l-17 -80h155l-23 -111h-155l-52 -242h-128z" />
    <glyph glyph-name="uni01C3" unicode="&#x1c3;" horiz-adv-x="304" 
d="M61 252l76 462h208l-124 -462h-160zM97 -12q-52 0 -71.5 23t-19.5 51q0 48 29.5 81t89.5 33q42 0 65 -20t23 -56q0 -56 -32.5 -84t-83.5 -28z" />
    <glyph glyph-name="uni01C4" unicode="&#x1c4;" horiz-adv-x="1223" 
d="M16 0l151 714h203q131 0 207 -69t76 -201q0 -138 -48.5 -237.5t-139.5 -153t-219 -53.5h-230zM241 158h34q55 0 96.5 34.5t65 97t23.5 144.5q0 61 -26.5 92.5t-73.5 31.5h-35zM639 0l23 118l337 440h-234l33 156h481l-25 -120l-342 -438h265l-33 -156h-505zM951 767
q-10 22 -25 49.5t-31.5 54t-31.5 45.5v11h130q11 -10 25.5 -25.5t28 -32l22.5 -27.5q28 22 57 43.5t60 41.5h134v-11q-25 -21 -52.5 -47.5t-53 -53t-45.5 -48.5h-218z" />
    <glyph glyph-name="uni01C5" unicode="&#x1c5;" horiz-adv-x="1187" 
d="M16 0l151 714h203q131 0 207 -69t76 -201q0 -138 -48.5 -237.5t-139.5 -153t-219 -53.5h-230zM241 158h34q55 0 96.5 34.5t65 97t23.5 144.5q0 61 -26.5 92.5t-73.5 31.5h-35zM664 0l21 108l245 299h-170l33 146h396l-26 -118l-242 -289h187l-32 -146h-412zM887 606
q-10 22 -25 49.5t-31.5 54t-31.5 45.5v11h130q11 -10 25.5 -25.5t28 -32l22.5 -27.5q28 22 57 43.5t60 41.5h134v-11q-25 -21 -52.5 -47.5t-53 -53t-45.5 -48.5h-218z" />
    <glyph glyph-name="uni01C6" unicode="&#x1c6;" horiz-adv-x="1107" 
d="M198 -10q-42 0 -78 20t-57.5 66t-21.5 125q0 40 9.5 89t28.5 97t48 88t69 64t90 24q45 0 69.5 -20t46.5 -54h4q0 6 1 27t4 47.5t8 49.5l30 147h191l-161 -760h-151l5 60h-4q-20 -28 -49.5 -49t-81.5 -21zM276 142q22 0 39.5 19.5t30 50t19 65t6.5 64.5q0 31 -9.5 50.5
t-29.5 19.5q-26 0 -48.5 -30t-36 -75.5t-13.5 -93.5q0 -70 42 -70zM584 0l21 108l245 299h-170l33 146h396l-26 -118l-242 -289h187l-32 -146h-412zM807 606q-10 22 -25 49.5t-31.5 54t-31.5 45.5v11h130q11 -10 25.5 -25.5t28 -32l22.5 -27.5q28 22 57 43.5t60 41.5h134
v-11q-25 -21 -52.5 -47.5t-53 -53t-45.5 -48.5h-218z" />
    <glyph glyph-name="uni01C7" unicode="&#x1c7;" horiz-adv-x="900" 
d="M16 0l151 714h191l-118 -558h233l-33 -156h-424zM471 -225q-26 0 -53.5 4t-50.5 10v156q18 -5 38.5 -8.5t46.5 -3.5q46 0 75 25t45 99l141 657h191l-146 -681q-20 -94 -54.5 -150.5t-90.5 -82t-142 -25.5z" />
    <glyph glyph-name="uni01C8" unicode="&#x1c8;" horiz-adv-x="852" 
d="M16 0l151 714h191l-118 -558h233l-33 -156h-424zM775 606q-40 0 -66.5 15.5t-26.5 53.5q0 49 29 75.5t81 26.5q37 0 65 -15.5t28 -53.5q0 -46 -27 -74t-83 -28zM499 -240q-26 0 -55 4t-46 9v148q18 -6 30 -7.5t25 -1.5q30 0 53.5 16.5t31.5 55.5l121 569h189l-127 -599
q-10 -50 -35.5 -94.5t-71 -72t-115.5 -27.5z" />
    <glyph glyph-name="uni01C9" unicode="&#x1c9;" horiz-adv-x="650" 
d="M11 0l161 760h189l-161 -760h-189zM573 606q-40 0 -66.5 15.5t-26.5 53.5q0 49 29 75.5t81 26.5q37 0 65 -15.5t28 -53.5q0 -46 -27 -74t-83 -28zM297 -240q-26 0 -55 4t-46 9v148q18 -6 30 -7.5t25 -1.5q30 0 53.5 16.5t31.5 55.5l121 569h189l-127 -599
q-10 -50 -35.5 -94.5t-71 -72t-115.5 -27.5z" />
    <glyph glyph-name="uni01CA" unicode="&#x1ca;" horiz-adv-x="1163" 
d="M16 0l151 714h222l140 -480h4l7.5 55t10 67t10.5 59l64 299h170l-151 -714h-222l-141 502h-4q-1 -10 -3.5 -33.5t-6 -54t-8.5 -61.5t-10 -55l-63 -298h-170zM734 -225q-26 0 -53.5 4t-50.5 10v156q18 -5 38.5 -8.5t46.5 -3.5q46 0 75 25t45 99l141 657h191l-146 -681
q-20 -94 -54.5 -150.5t-90.5 -82t-142 -25.5z" />
    <glyph glyph-name="uni01CB" unicode="&#x1cb;" horiz-adv-x="1115" 
d="M16 0l151 714h222l140 -480h4l7.5 55t10 67t10.5 59l64 299h170l-151 -714h-222l-141 502h-4q-1 -10 -3.5 -33.5t-6 -54t-8.5 -61.5t-10 -55l-63 -298h-170zM1038 606q-40 0 -66.5 15.5t-26.5 53.5q0 49 29 75.5t81 26.5q37 0 65 -15.5t28 -53.5q0 -46 -27 -74t-83 -28z
M762 -240q-26 0 -55 4t-46 9v148q18 -6 30 -7.5t25 -1.5q30 0 53.5 16.5t31.5 55.5l121 569h189l-127 -599q-10 -50 -35.5 -94.5t-71 -72t-115.5 -27.5z" />
    <glyph glyph-name="uni01CC" unicode="&#x1cc;" horiz-adv-x="947" 
d="M11 0l117 553h151l-6 -77h4q27 46 63 66.5t89 20.5q51 0 83.5 -21.5t47.5 -57.5t15 -78q0 -28 -3.5 -57t-8.5 -55l-62 -294h-189l63 302q3 13 6 32.5t3 36.5q0 21 -11 31.5t-26 10.5q-28 0 -51.5 -34.5t-38.5 -108.5l-57 -270h-189zM870 606q-40 0 -66.5 15.5t-26.5 53.5
q0 49 29 75.5t81 26.5q37 0 65 -15.5t28 -53.5q0 -46 -27 -74t-83 -28zM594 -240q-26 0 -55 4t-46 9v148q18 -6 30 -7.5t25 -1.5q30 0 53.5 16.5t31.5 55.5l121 569h189l-127 -599q-10 -50 -35.5 -94.5t-71 -72t-115.5 -27.5z" />
    <glyph glyph-name="uni01CD" unicode="&#x1cd;" horiz-adv-x="676" 
d="M-59 0l363 714h246l60 -714h-186l-5 134h-219l-61 -134h-198zM270 286h143l-7 205q-1 24 -1.5 47.5t0.5 44.5h-3q-15 -45 -35 -88zM331 767q-10 22 -25 49.5t-31.5 54t-31.5 45.5v11h130q11 -10 25.5 -25.5t28 -32l22.5 -27.5q28 22 57 43.5t60 41.5h134v-11
q-25 -21 -52.5 -47.5t-53 -53t-45.5 -48.5h-218z" />
    <glyph glyph-name="uni01CE" unicode="&#x1ce;" horiz-adv-x="607" 
d="M198 -10q-42 0 -78 20t-57.5 66t-21.5 125q0 40 9.5 89t28.5 97t48.5 88t69.5 64t90 24q47 0 77.5 -21.5t50.5 -56.5h4l26 68h151l-117 -553h-151l5 60h-4q-22 -31 -52 -50.5t-79 -19.5zM276 142q22 0 39.5 19.5t30.5 51t19 67.5q6 30 6 61t-10 50.5t-30 19.5
q-26 0 -48 -30t-35.5 -75.5t-13.5 -93.5q0 -70 42 -70zM263 606q-10 22 -25 49.5t-31.5 54t-31.5 45.5v11h130q11 -10 25.5 -25.5t28 -32l22.5 -27.5q28 22 57 43.5t60 41.5h134v-11q-25 -21 -52.5 -47.5t-53 -53t-45.5 -48.5h-218z" />
    <glyph glyph-name="uni01CF" unicode="&#x1cf;" horiz-adv-x="426" 
d="M-36 0l23 109l94 39l88 414l-78 42l23 110h367l-23 -110l-98 -42l-88 -414l79 -39l-23 -109h-364zM197 767q-10 22 -25 49.5t-31.5 54t-31.5 45.5v11h130q11 -10 25.5 -25.5t28 -32l22.5 -27.5q28 22 57 43.5t60 41.5h134v-11q-25 -21 -52.5 -47.5t-53 -53t-45.5 -48.5
h-218z" />
    <glyph glyph-name="uni01D0" unicode="&#x1d0;" horiz-adv-x="325" 
d="M11 0l117 553h190l-118 -553h-189zM122 606q-10 22 -25 49.5t-31.5 54t-31.5 45.5v11h130q11 -10 25.5 -25.5t28 -32l22.5 -27.5q28 22 57 43.5t60 41.5h134v-11q-25 -21 -52.5 -47.5t-53 -53t-45.5 -48.5h-218z" />
    <glyph glyph-name="uni01D1" unicode="&#x1d1;" horiz-adv-x="737" 
d="M325 -10q-137 0 -205.5 75t-68.5 200q0 83 23.5 164.5t71 148.5t120.5 107t172 40q132 0 200 -75.5t68 -199.5q0 -83 -22.5 -164.5t-69.5 -148.5t-118.5 -107t-170.5 -40zM342 148q48 0 87 41t61.5 109t22.5 150q0 56 -23.5 87.5t-67.5 31.5q-40 0 -73 -26.5t-56.5 -70
t-36 -97t-12.5 -107.5q0 -118 98 -118zM355 767q-10 22 -25 49.5t-31.5 54t-31.5 45.5v11h130q11 -10 25.5 -25.5t28 -32l22.5 -27.5q28 22 57 43.5t60 41.5h134v-11q-25 -21 -52.5 -47.5t-53 -53t-45.5 -48.5h-218z" />
    <glyph glyph-name="uni01D2" unicode="&#x1d2;" horiz-adv-x="607" 
d="M254 -10q-102 0 -157.5 55.5t-55.5 157.5q0 71 20 135.5t59 115t97.5 80t135.5 29.5q102 0 157.5 -55.5t55.5 -157.5q0 -71 -20 -135.5t-59 -115t-97.5 -80t-135.5 -29.5zM275 132q28 0 50 33.5t35 85t13 105.5q0 65 -42 65q-28 0 -50 -33.5t-34.5 -84.5t-12.5 -106
q0 -65 41 -65zM258 606q-10 22 -25 49.5t-31.5 54t-31.5 45.5v11h130q11 -10 25.5 -25.5t28 -32l22.5 -27.5q28 22 57 43.5t60 41.5h134v-11q-25 -21 -52.5 -47.5t-53 -53t-45.5 -48.5h-218z" />
    <glyph glyph-name="uni01D3" unicode="&#x1d3;" horiz-adv-x="701" 
d="M298 -10q-74 0 -127.5 27t-81.5 73.5t-28 106.5q0 15 1.5 32.5t4.5 33.5l97 451h191l-95 -446q-3 -14 -5 -28.5t-2 -27.5q0 -29 16 -45.5t47 -16.5q43 0 68 29t40 99l93 436h191l-97 -455q-19 -87 -55.5 -147t-99 -91t-158.5 -31zM332 767q-10 22 -25 49.5t-31.5 54
t-31.5 45.5v11h130q11 -10 25.5 -25.5t28 -32l22.5 -27.5q28 22 57 43.5t60 41.5h134v-11q-25 -21 -52.5 -47.5t-53 -53t-45.5 -48.5h-218z" />
    <glyph glyph-name="uni01D4" unicode="&#x1d4;" horiz-adv-x="622" 
d="M193 -10q-51 0 -83.5 21.5t-47.5 57t-15 78.5q0 28 3.5 57t8.5 55l62 294h189l-63 -301q-3 -13 -6 -32.5t-3 -36.5q0 -21 11 -31.5t26 -10.5q25 0 49.5 34.5t40.5 108.5l57 269h189l-117 -553h-151l6 77h-4q-27 -47 -63 -67t-89 -20zM263 606q-10 22 -25 49.5t-31.5 54
t-31.5 45.5v11h130q11 -10 25.5 -25.5t28 -32l22.5 -27.5q28 22 57 43.5t60 41.5h134v-11q-25 -21 -52.5 -47.5t-53 -53t-45.5 -48.5h-218z" />
    <glyph glyph-name="uni01D5" unicode="&#x1d5;" horiz-adv-x="701" 
d="M298 -10q-74 0 -127.5 27t-81.5 73.5t-28 106.5q0 15 1.5 32.5t4.5 33.5l97 451h191l-95 -446q-3 -14 -5 -28.5t-2 -27.5q0 -29 16 -45.5t47 -16.5q43 0 68 29t40 99l93 436h191l-97 -455q-19 -87 -55.5 -147t-99 -91t-158.5 -31zM312 957l25 115h325l-24 -115h-326z
M346 780q-33 0 -55 11.5t-22 46.5q0 45 24 65t67 20q28 0 52.5 -10.5t24.5 -46.5q0 -39 -20 -62.5t-71 -23.5zM566 780q-33 0 -55 11.5t-22 46.5q0 45 24 65t67 20q28 0 52 -10.5t24 -46.5q0 -39 -19.5 -62.5t-70.5 -23.5z" />
    <glyph glyph-name="uni01D6" unicode="&#x1d6;" horiz-adv-x="622" 
d="M193 -10q-51 0 -83.5 21.5t-47.5 57t-15 78.5q0 28 3.5 57t8.5 55l62 294h189l-63 -301q-3 -13 -6 -32.5t-3 -36.5q0 -21 11 -31.5t26 -10.5q25 0 49.5 34.5t40.5 108.5l57 269h189l-117 -553h-151l6 77h-4q-27 -47 -63 -67t-89 -20zM243 796l25 115h325l-24 -115h-326z
M277 619q-33 0 -55 11.5t-22 46.5q0 45 24 65t67 20q28 0 52.5 -10.5t24.5 -46.5q0 -39 -20 -62.5t-71 -23.5zM497 619q-33 0 -55 11.5t-22 46.5q0 45 24 65t67 20q28 0 52 -10.5t24 -46.5q0 -39 -19.5 -62.5t-70.5 -23.5z" />
    <glyph glyph-name="uni01D7" unicode="&#x1d7;" horiz-adv-x="701" 
d="M298 -10q-74 0 -127.5 27t-81.5 73.5t-28 106.5q0 15 1.5 32.5t4.5 33.5l97 451h191l-95 -446q-3 -14 -5 -28.5t-2 -27.5q0 -29 16 -45.5t47 -16.5q43 0 68 29t40 99l93 436h191l-97 -455q-19 -87 -55.5 -147t-99 -91t-158.5 -31zM390 924v10q27 25 60 62.5t55 69.5h194
v-6q-9 -12 -31 -30.5t-50 -39t-55.5 -38.5t-46.5 -28h-126zM343 766q-32 0 -53.5 11.5t-21.5 43.5q0 43 23.5 62t65.5 19q27 0 51.5 -10t24.5 -44q0 -37 -20 -59.5t-70 -22.5zM560 766q-33 0 -54.5 11.5t-21.5 43.5q0 43 23.5 62t65.5 19q28 0 51.5 -10t23.5 -44
q0 -37 -19 -59.5t-69 -22.5z" />
    <glyph glyph-name="uni01D8" unicode="&#x1d8;" horiz-adv-x="622" 
d="M193 -10q-51 0 -83.5 21.5t-47.5 57t-15 78.5q0 28 3.5 57t8.5 55l62 294h189l-63 -301q-3 -13 -6 -32.5t-3 -36.5q0 -21 11 -31.5t26 -10.5q25 0 49.5 34.5t40.5 108.5l57 269h189l-117 -553h-151l6 77h-4q-27 -47 -63 -67t-89 -20zM321 763v10q27 25 60 62.5t55 69.5
h194v-6q-9 -12 -31 -30.5t-50 -39t-55.5 -38.5t-46.5 -28h-126zM274 605q-32 0 -53.5 11.5t-21.5 43.5q0 43 23.5 62t65.5 19q27 0 51.5 -10t24.5 -44q0 -37 -20 -59.5t-70 -22.5zM491 605q-33 0 -54.5 11.5t-21.5 43.5q0 43 23.5 62t65.5 19q28 0 51.5 -10t23.5 -44
q0 -37 -19 -59.5t-69 -22.5z" />
    <glyph glyph-name="uni01D9" unicode="&#x1d9;" horiz-adv-x="701" 
d="M298 -10q-74 0 -127.5 27t-81.5 73.5t-28 106.5q0 15 1.5 32.5t4.5 33.5l97 451h191l-95 -446q-3 -14 -5 -28.5t-2 -27.5q0 -29 16 -45.5t47 -16.5q43 0 68 29t40 99l93 436h191l-97 -455q-19 -87 -55.5 -147t-99 -91t-158.5 -31zM371 955q-15 29 -40.5 66.5t-47.5 63.5
v10h130q16 -13 39 -36.5t37 -37.5q28 19 57 38t60 36h134v-10q-37 -27 -79.5 -64.5t-71.5 -65.5h-218zM345 780q-33 0 -55 11.5t-22 46.5q0 45 24 65t67 20q28 0 52.5 -10.5t24.5 -46.5q0 -39 -20 -62.5t-71 -23.5zM565 780q-33 0 -55 11.5t-22 46.5q0 45 24 65t67 20
q28 0 52 -10.5t24 -46.5q0 -39 -19.5 -62.5t-70.5 -23.5z" />
    <glyph glyph-name="uni01DA" unicode="&#x1da;" horiz-adv-x="622" 
d="M193 -10q-51 0 -83.5 21.5t-47.5 57t-15 78.5q0 28 3.5 57t8.5 55l62 294h189l-63 -301q-3 -13 -6 -32.5t-3 -36.5q0 -21 11 -31.5t26 -10.5q25 0 49.5 34.5t40.5 108.5l57 269h189l-117 -553h-151l6 77h-4q-27 -47 -63 -67t-89 -20zM302 794q-15 29 -40.5 66.5
t-47.5 63.5v10h130q16 -13 39 -36.5t37 -37.5q28 19 57 38t60 36h134v-10q-37 -27 -79.5 -64.5t-71.5 -65.5h-218zM276 619q-33 0 -55 11.5t-22 46.5q0 45 24 65t67 20q28 0 52.5 -10.5t24.5 -46.5q0 -39 -20 -62.5t-71 -23.5zM496 619q-33 0 -55 11.5t-22 46.5q0 45 24 65
t67 20q28 0 52 -10.5t24 -46.5q0 -39 -19.5 -62.5t-70.5 -23.5z" />
    <glyph glyph-name="uni01DB" unicode="&#x1db;" horiz-adv-x="701" 
d="M298 -10q-74 0 -127.5 27t-81.5 73.5t-28 106.5q0 15 1.5 32.5t4.5 33.5l97 451h191l-95 -446q-3 -14 -5 -28.5t-2 -27.5q0 -29 16 -45.5t47 -16.5q43 0 68 29t40 99l93 436h191l-97 -455q-19 -87 -55.5 -147t-99 -91t-158.5 -31zM423 924q-22 13 -49 37.5t-50.5 50
t-34.5 42.5v12h189q7 -20 19.5 -45t26 -48.5t25.5 -38.5v-10h-126zM342 766q-32 0 -53.5 11.5t-21.5 43.5q0 43 23.5 62t65.5 19q27 0 51.5 -10t24.5 -44q0 -37 -20 -59.5t-70 -22.5zM559 766q-33 0 -54.5 11.5t-21.5 43.5q0 43 23.5 62t65.5 19q28 0 51.5 -10t23.5 -44
q0 -37 -19 -59.5t-69 -22.5z" />
    <glyph glyph-name="uni01DC" unicode="&#x1dc;" horiz-adv-x="622" 
d="M193 -10q-51 0 -83.5 21.5t-47.5 57t-15 78.5q0 28 3.5 57t8.5 55l62 294h189l-63 -301q-3 -13 -6 -32.5t-3 -36.5q0 -21 11 -31.5t26 -10.5q25 0 49.5 34.5t40.5 108.5l57 269h189l-117 -553h-151l6 77h-4q-27 -47 -63 -67t-89 -20zM354 763q-22 13 -49 37.5t-50.5 50
t-34.5 42.5v12h189q7 -20 19.5 -45t26 -48.5t25.5 -38.5v-10h-126zM273 605q-32 0 -53.5 11.5t-21.5 43.5q0 43 23.5 62t65.5 19q27 0 51.5 -10t24.5 -44q0 -37 -20 -59.5t-70 -22.5zM490 605q-33 0 -54.5 11.5t-21.5 43.5q0 43 23.5 62t65.5 19q28 0 51.5 -10t23.5 -44
q0 -37 -19 -59.5t-69 -22.5z" />
    <glyph glyph-name="uni01DD" unicode="&#x1dd;" horiz-adv-x="579" 
d="M220 -10q-93 0 -146 42t-53 112q0 92 71.5 147.5t225.5 55.5h29v8q0 72 -80 72q-42 0 -79.5 -12.5t-80.5 -35.5v134q44 23 91.5 36.5t119.5 13.5q105 0 162 -58.5t57 -160.5q0 -68 -19.5 -131.5t-58.5 -113.5t-98.5 -79.5t-140.5 -29.5zM241 118q22 0 40.5 17t30.5 43
t16 51h-14q-64 0 -89 -24.5t-25 -49.5q0 -16 10 -26.5t31 -10.5z" />
    <glyph glyph-name="uni01DE" unicode="&#x1de;" horiz-adv-x="676" 
d="M-59 0l363 714h246l60 -714h-186l-5 134h-219l-61 -134h-198zM270 286h143l-7 205q-1 24 -1.5 47.5t0.5 44.5h-3q-15 -45 -35 -88zM311 957l25 115h325l-24 -115h-326zM345 780q-33 0 -55 11.5t-22 46.5q0 45 24 65t67 20q28 0 52.5 -10.5t24.5 -46.5q0 -39 -20 -62.5
t-71 -23.5zM565 780q-33 0 -55 11.5t-22 46.5q0 45 24 65t67 20q28 0 52 -10.5t24 -46.5q0 -39 -19.5 -62.5t-70.5 -23.5z" />
    <glyph glyph-name="uni01DF" unicode="&#x1df;" horiz-adv-x="607" 
d="M198 -10q-42 0 -78 20t-57.5 66t-21.5 125q0 40 9.5 89t28.5 97t48.5 88t69.5 64t90 24q47 0 77.5 -21.5t50.5 -56.5h4l26 68h151l-117 -553h-151l5 60h-4q-22 -31 -52 -50.5t-79 -19.5zM276 142q22 0 39.5 19.5t30.5 51t19 67.5q6 30 6 61t-10 50.5t-30 19.5
q-26 0 -48 -30t-35.5 -75.5t-13.5 -93.5q0 -70 42 -70zM243 796l25 115h325l-24 -115h-326zM277 619q-33 0 -55 11.5t-22 46.5q0 45 24 65t67 20q28 0 52.5 -10.5t24.5 -46.5q0 -39 -20 -62.5t-71 -23.5zM497 619q-33 0 -55 11.5t-22 46.5q0 45 24 65t67 20q28 0 52 -10.5
t24 -46.5q0 -39 -19.5 -62.5t-70.5 -23.5z" />
    <glyph glyph-name="uni01E0" unicode="&#x1e0;" horiz-adv-x="676" 
d="M-59 0l363 714h246l60 -714h-186l-5 134h-219l-61 -134h-198zM270 286h143l-7 205q-1 24 -1.5 47.5t0.5 44.5h-3q-15 -45 -35 -88zM309 998l25 115h325l-24 -115h-326zM447 790q-40 0 -66.5 14t-26.5 55q0 54 29 78t82 24q23 0 44 -5.5t35 -20.5t14 -43
q0 -45 -24.5 -73.5t-86.5 -28.5z" />
    <glyph glyph-name="uni01E1" unicode="&#x1e1;" horiz-adv-x="607" 
d="M198 -10q-42 0 -78 20t-57.5 66t-21.5 125q0 40 9.5 89t28.5 97t48.5 88t69.5 64t90 24q47 0 77.5 -21.5t50.5 -56.5h4l26 68h151l-117 -553h-151l5 60h-4q-22 -31 -52 -50.5t-79 -19.5zM276 142q22 0 39.5 19.5t30.5 51t19 67.5q6 30 6 61t-10 50.5t-30 19.5
q-26 0 -48 -30t-35.5 -75.5t-13.5 -93.5q0 -70 42 -70zM240 804l25 115h325l-24 -115h-326zM380 610q-38 0 -64 12.5t-26 48.5q0 48 28.5 69t79.5 21q22 0 42 -5t33.5 -18t13.5 -38q0 -40 -23.5 -65t-83.5 -25z" />
    <glyph glyph-name="uni01E2" unicode="&#x1e2;" horiz-adv-x="946" 
d="M-61 0l444 714h592l-32 -155h-233l-23 -112h217l-35 -155h-217l-28 -135h233l-33 -157h-424l28 134h-204l-83 -134h-202zM323 294h140l55 265h-33zM467 767l25 115h325l-24 -115h-326z" />
    <glyph glyph-name="uni01E3" unicode="&#x1e3;" horiz-adv-x="873" 
d="M198 -10q-42 0 -78 20t-57.5 66t-21.5 125q0 40 9.5 89t28.5 97t48.5 88t69.5 64t90 24q47 0 76 -20t52 -58h4l26 68h101v-46q23 23 59 39.5t77 16.5q76 0 122.5 -42t46.5 -112q0 -91 -71.5 -147t-225.5 -56h-29v-8q0 -72 80 -72q42 0 79.5 13t80.5 35v-134
q-38 -22 -79 -36t-104 -14q-87 0 -128 55l-15 -45h-111l5 60h-4q-22 -31 -52 -50.5t-79 -19.5zM544 324h14q64 0 89 24t25 50q0 16 -10 26.5t-31 10.5q-22 0 -40.5 -17t-30.5 -42.5t-16 -51.5zM276 142q22 0 39.5 19.5t30.5 51t19 67.5q3 15 4 30.5t1 30.5q0 31 -11.5 50.5
t-31.5 19.5q-26 0 -47 -30t-33.5 -75.5t-12.5 -93.5q0 -70 42 -70zM337 606l25 115h325l-24 -115h-326z" />
    <glyph glyph-name="uni01E4" unicode="&#x1e4;" horiz-adv-x="698" 
d="M319 -10q-121 0 -194.5 71.5t-73.5 213.5q0 86 25.5 166.5t77 144.5t130 101.5t185.5 37.5q62 0 118.5 -13.5t100.5 -38.5l-72 -151q-31 18 -68.5 31t-80.5 13q-63 0 -105.5 -29t-68.5 -73.5t-37.5 -94t-11.5 -91.5q0 -77 25.5 -112t72.5 -35q20 0 33 1.5t32 5.5l7 34
h-105l21 102h107l8 39h-112l33 149h298l-40 -188h64l-22 -102h-63l-30 -142q-51 -16 -112.5 -28t-141.5 -12z" />
    <glyph glyph-name="uni01E5" unicode="&#x1e5;" horiz-adv-x="607" 
d="M191 -240q-61 0 -102 9t-76 22v135q37 -20 80 -31t89 -11q32 0 54 10.5t36 29.5h-114l17 80h125l9 42q5 23 13 50h-4q-20 -25 -47 -42t-74 -17q-41 0 -74.5 19.5t-52.5 64.5t-19 120q0 36 9 79.5t27.5 86t46.5 78t66 57t86 21.5q47 0 74.5 -18.5t54.5 -59.5h4l26 68h151
l-116 -549h76l-17 -80h-82q-37 -92 -107.5 -128t-158.5 -36zM286 184q29 0 48 26t28 62.5t9 68.5q0 31 -9.5 50.5t-29.5 19.5q-24 0 -44 -23.5t-32 -59.5t-12 -74q0 -70 42 -70z" />
    <glyph glyph-name="uni01E6" unicode="&#x1e6;" horiz-adv-x="698" 
d="M319 -10q-121 0 -194.5 71.5t-73.5 213.5q0 86 25.5 166.5t77 144.5t130 101.5t185.5 37.5q62 0 118.5 -13.5t100.5 -38.5l-72 -151q-31 18 -68.5 31t-80.5 13q-63 0 -105.5 -29t-68.5 -73.5t-37.5 -94t-11.5 -91.5q0 -68 26 -98.5t76 -30.5q20 0 33 1.5t32 5.5l25 113
h-112l33 149h298l-82 -388q-51 -16 -112.5 -28t-141.5 -12zM356 767q-10 22 -25 49.5t-31.5 54t-31.5 45.5v11h130q11 -10 25.5 -25.5t28 -32l22.5 -27.5q28 22 57 43.5t60 41.5h134v-11q-25 -21 -52.5 -47.5t-53 -53t-45.5 -48.5h-218z" />
    <glyph glyph-name="uni01E7" unicode="&#x1e7;" horiz-adv-x="607" 
d="M191 -240q-61 0 -102 9t-76 22v155q38 -20 82 -31t91 -11q46 0 72.5 22t35.5 56l5 22q5 23 13 50h-4q-20 -25 -47 -42t-74 -17q-41 0 -74.5 19.5t-52.5 64t-19 120.5q0 41 9.5 90t28.5 97t48 88.5t69 64.5t90 24q47 0 74.5 -18.5t54.5 -59.5h4l26 68h151l-120 -566
q-18 -86 -60 -135.5t-100 -70.5t-125 -21zM276 142q22 0 39.5 19.5t30 50t19 65t6.5 64.5q0 31 -9.5 50.5t-29.5 19.5q-26 0 -48.5 -30t-36 -75.5t-13.5 -93.5q0 -70 42 -70zM257 606q-10 22 -25 49.5t-31.5 54t-31.5 45.5v11h130q11 -10 25.5 -25.5t28 -32l22.5 -27.5
q28 22 57 43.5t60 41.5h134v-11q-25 -21 -52.5 -47.5t-53 -53t-45.5 -48.5h-218z" />
    <glyph glyph-name="uni01E8" unicode="&#x1e8;" horiz-adv-x="669" 
d="M16 0l151 714h191l-66 -305l71 100l156 205h224l-269 -329l132 -385h-214l-85 282l-47 -27l-53 -255h-191zM338 767q-10 22 -25 49.5t-31.5 54t-31.5 45.5v11h130q11 -10 25.5 -25.5t28 -32l22.5 -27.5q28 22 57 43.5t60 41.5h134v-11q-25 -21 -52.5 -47.5t-53 -53
t-45.5 -48.5h-218z" />
    <glyph glyph-name="uni01E9" unicode="&#x1e9;" horiz-adv-x="617" 
d="M11 0l159 760h189l-68 -324q-6 -27 -15.5 -60.5t-15.5 -49.5h4l191 227h216l-240 -250l134 -303h-214l-68 191l-49 -26l-34 -165h-189zM161 813q-10 22 -25 49.5t-31.5 54t-31.5 45.5v11h130q11 -10 25.5 -25.5t28 -32l22.5 -27.5q28 22 57 43.5t60 41.5h134v-11
q-25 -21 -52.5 -47.5t-53 -53t-45.5 -48.5h-218z" />
    <glyph glyph-name="uni01EA" unicode="&#x1ea;" horiz-adv-x="737" 
d="M325 -10q-137 0 -205.5 75t-68.5 200q0 83 23.5 164.5t71 148.5t120.5 107t172 40q132 0 200 -75.5t68 -199.5q0 -83 -22.5 -164.5t-69.5 -148.5t-118.5 -107t-170.5 -40zM342 148q48 0 87 41t61.5 109t22.5 150q0 56 -23.5 87.5t-67.5 31.5q-40 0 -73 -26.5t-56.5 -70
t-36 -97t-12.5 -107.5q0 -118 98 -118zM298 -256q-59 0 -90.5 31t-31.5 74q0 50 30 85.5t76 65.5h123q-39 -32 -66 -59.5t-27 -60.5q0 -10 6.5 -17.5t19.5 -7.5q16 0 29 3.5t28 8.5v-108q-22 -7 -43.5 -11t-53.5 -4z" />
    <glyph glyph-name="uni01EB" unicode="&#x1eb;" horiz-adv-x="607" 
d="M254 -10q-102 0 -157.5 55.5t-55.5 157.5q0 71 20 135.5t59 115t97.5 80t135.5 29.5q102 0 157.5 -55.5t55.5 -157.5q0 -71 -20 -135.5t-59 -115t-97.5 -80t-135.5 -29.5zM275 132q28 0 50 33.5t35 85t13 105.5q0 65 -42 65q-28 0 -50 -33.5t-34.5 -84.5t-12.5 -106
q0 -65 41 -65zM218 -256q-59 0 -90.5 31t-31.5 74q0 50 30 85.5t76 65.5h123q-39 -32 -66 -59.5t-27 -60.5q0 -10 6.5 -17.5t19.5 -7.5q16 0 29 3.5t28 8.5v-108q-22 -7 -43.5 -11t-53.5 -4z" />
    <glyph glyph-name="uni01EC" unicode="&#x1ec;" horiz-adv-x="737" 
d="M325 -10q-137 0 -205.5 75t-68.5 200q0 83 23.5 164.5t71 148.5t120.5 107t172 40q132 0 200 -75.5t68 -199.5q0 -83 -22.5 -164.5t-69.5 -148.5t-118.5 -107t-170.5 -40zM342 148q48 0 87 41t61.5 109t22.5 150q0 56 -23.5 87.5t-67.5 31.5q-40 0 -73 -26.5t-56.5 -70
t-36 -97t-12.5 -107.5q0 -118 98 -118zM296 767l25 115h325l-24 -115h-326zM298 -256q-59 0 -90.5 31t-31.5 74q0 50 30 85.5t76 65.5h123q-39 -32 -66 -59.5t-27 -60.5q0 -10 6.5 -17.5t19.5 -7.5q16 0 29 3.5t28 8.5v-108q-22 -7 -43.5 -11t-53.5 -4z" />
    <glyph glyph-name="uni01ED" unicode="&#x1ed;" horiz-adv-x="607" 
d="M254 -10q-102 0 -157.5 55.5t-55.5 157.5q0 71 20 135.5t59 115t97.5 80t135.5 29.5q102 0 157.5 -55.5t55.5 -157.5q0 -71 -20 -135.5t-59 -115t-97.5 -80t-135.5 -29.5zM275 132q28 0 50 33.5t35 85t13 105.5q0 65 -42 65q-28 0 -50 -33.5t-34.5 -84.5t-12.5 -106
q0 -65 41 -65zM199 606l25 115h325l-24 -115h-326zM218 -256q-59 0 -90.5 31t-31.5 74q0 50 30 85.5t76 65.5h123q-39 -32 -66 -59.5t-27 -60.5q0 -10 6.5 -17.5t19.5 -7.5q16 0 29 3.5t28 8.5v-108q-22 -7 -43.5 -11t-53.5 -4z" />
    <glyph glyph-name="uni01EE" unicode="&#x1ee;" horiz-adv-x="574" 
d="M201 -10q-63 0 -118 10t-83 29v159q36 -22 85 -34t95 -12q40 0 73 6.5t53 25t20 55.5q0 35 -28.5 51.5t-106.5 16.5h-66l26 113l167 148h-205l33 156h441l-25 -120l-189 -174q73 -16 109.5 -66t36.5 -125q0 -70 -33.5 -124t-103.5 -84.5t-181 -30.5zM250 771
q-10 22 -25 49.5t-31.5 54t-31.5 45.5v11h130q11 -10 25.5 -25.5t28 -32l22.5 -27.5q28 22 57 43.5t60 41.5h134v-11q-25 -21 -52.5 -47.5t-53 -53t-45.5 -48.5h-218z" />
    <glyph glyph-name="uni01EF" unicode="&#x1ef;" horiz-adv-x="586" 
d="M164 -240q-56 0 -108 11t-95 33v162q34 -20 72 -32t72.5 -17t58.5 -5q57 0 95 28t38 90q0 20 -11 42t-41.5 37t-90.5 15h-51l28 138l171 149h-215l31 142h450l-24 -118l-215 -181q90 -26 125.5 -82t35.5 -139q0 -91 -41.5 -152t-115 -91t-169.5 -30zM206 606
q-10 22 -25 49.5t-31.5 54t-31.5 45.5v11h130q11 -10 25.5 -25.5t28 -32l22.5 -27.5q28 22 57 43.5t60 41.5h134v-11q-25 -21 -52.5 -47.5t-53 -53t-45.5 -48.5h-218z" />
    <glyph glyph-name="uni01F0" unicode="&#x1f0;" horiz-adv-x="325" 
d="M-28 -240q-26 0 -55 4t-46 9v148q18 -6 30 -7.5t25 -1.5q30 0 53.5 16.5t31.5 55.5l121 569h189l-127 -599q-10 -50 -35.5 -94.5t-71 -72t-115.5 -27.5zM119 606q-10 22 -25 49.5t-31.5 54t-31.5 45.5v11h130q11 -10 25.5 -25.5t28 -32l22.5 -27.5q28 22 57 43.5t60 41.5
h134v-11q-25 -21 -52.5 -47.5t-53 -53t-45.5 -48.5h-218z" />
    <glyph glyph-name="uni01F1" unicode="&#x1f1;" horiz-adv-x="1223" 
d="M16 0l151 714h203q131 0 207 -69t76 -201q0 -138 -48.5 -237.5t-139.5 -153t-219 -53.5h-230zM241 158h34q55 0 96.5 34.5t65 97t23.5 144.5q0 61 -26.5 92.5t-73.5 31.5h-35zM639 0l23 118l337 440h-234l33 156h481l-25 -120l-342 -438h265l-33 -156h-505z" />
    <glyph glyph-name="uni01F2" unicode="&#x1f2;" horiz-adv-x="1169" 
d="M16 0l151 714h203q131 0 207 -69t76 -201q0 -138 -48.5 -237.5t-139.5 -153t-219 -53.5h-230zM241 158h34q55 0 96.5 34.5t65 97t23.5 144.5q0 61 -26.5 92.5t-73.5 31.5h-35zM664 0l21 108l245 299h-170l33 146h396l-26 -118l-242 -289h187l-32 -146h-412z" />
    <glyph glyph-name="uni01F3" unicode="&#x1f3;" horiz-adv-x="1089" 
d="M198 -10q-42 0 -78 20t-57.5 66t-21.5 125q0 40 9.5 89t28.5 97t48 88t69 64t90 24q45 0 69.5 -20t46.5 -54h4q0 6 1 27t4 47.5t8 49.5l30 147h191l-161 -760h-151l5 60h-4q-20 -28 -49.5 -49t-81.5 -21zM276 142q22 0 39.5 19.5t30 50t19 65t6.5 64.5q0 31 -9.5 50.5
t-29.5 19.5q-26 0 -48.5 -30t-36 -75.5t-13.5 -93.5q0 -70 42 -70zM584 0l21 108l245 299h-170l33 146h396l-26 -118l-242 -289h187l-32 -146h-412z" />
    <glyph glyph-name="uni01F4" unicode="&#x1f4;" horiz-adv-x="698" 
d="M319 -10q-121 0 -194.5 71.5t-73.5 213.5q0 86 25.5 166.5t77 144.5t130 101.5t185.5 37.5q62 0 118.5 -13.5t100.5 -38.5l-72 -151q-31 18 -68.5 31t-80.5 13q-63 0 -105.5 -29t-68.5 -73.5t-37.5 -94t-11.5 -91.5q0 -68 26 -98.5t76 -30.5q20 0 33 1.5t32 5.5l25 113
h-112l33 149h298l-82 -388q-51 -16 -112.5 -28t-141.5 -12zM368 767v11q34 29 72 71t66 78h214v-7q-11 -13 -36.5 -34t-57.5 -43.5t-64 -43t-55 -32.5h-139z" />
    <glyph glyph-name="uni01F5" unicode="&#x1f5;" horiz-adv-x="607" 
d="M191 -240q-61 0 -102 9t-76 22v155q38 -20 82 -31t91 -11q46 0 72.5 22t35.5 56l5 22q5 23 13 50h-4q-20 -25 -47 -42t-74 -17q-41 0 -74.5 19.5t-52.5 64t-19 120.5q0 41 9.5 90t28.5 97t48 88.5t69 64.5t90 24q47 0 74.5 -18.5t54.5 -59.5h4l26 68h151l-120 -566
q-18 -86 -60 -135.5t-100 -70.5t-125 -21zM276 142q22 0 39.5 19.5t30 50t19 65t6.5 64.5q0 31 -9.5 50.5t-29.5 19.5q-26 0 -48.5 -30t-36 -75.5t-13.5 -93.5q0 -70 42 -70zM269 606v11q34 29 72 71t66 78h214v-7q-11 -13 -36.5 -34t-57.5 -43.5t-64 -43t-55 -32.5h-139z
" />
    <glyph glyph-name="uni01F6" unicode="&#x1f6;" horiz-adv-x="1062" 
d="M682 -10q-118 0 -182.5 55t-64.5 148q0 23 2 40.5t5 34.5l5 26h-180l-61 -294h-191l151 714h191l-56 -268h180l55 268h193l-92 -435q-4 -19 -7 -37t-3 -34q0 -38 22 -55t53 -17q43 0 67.5 30.5t38.5 95.5l61 290h188l-60 -290q-17 -86 -54 -146.5t-100 -93t-161 -32.5z
" />
    <glyph glyph-name="uni01F7" unicode="&#x1f7;" horiz-adv-x="655" 
d="M-35 -240l203 953h156l-2 -80h4q26 34 65 62t100 28q84 0 131.5 -53t47.5 -147q0 -92 -33 -174.5t-94 -150t-145 -115.5t-186 -71l-54 -252h-193zM247 182q67 20 118 66.5t80.5 108t29.5 125.5q0 36 -18 57t-52 21q-33 0 -53.5 -17t-31.5 -43t-17 -55z" />
    <glyph glyph-name="uni01F8" unicode="&#x1f8;" horiz-adv-x="790" 
d="M16 0l151 714h222l140 -480h4l7.5 55t10 67t10.5 59l64 299h170l-151 -714h-222l-141 502h-4q-1 -10 -3.5 -33.5t-6 -54t-8.5 -61.5t-10 -55l-63 -298h-170zM479 767q-33 31 -69.5 72t-54.5 78v10h193q6 -32 17.5 -71t28.5 -77v-12h-115z" />
    <glyph glyph-name="uni01F9" unicode="&#x1f9;" horiz-adv-x="622" 
d="M11 0l117 553h151l-6 -77h4q27 46 63 66.5t89 20.5q51 0 83.5 -21.5t47.5 -57.5t15 -78q0 -28 -3.5 -57t-8.5 -55l-62 -294h-189l63 302q3 13 6 32.5t3 36.5q0 21 -11 31.5t-26 10.5q-28 0 -51.5 -34.5t-38.5 -108.5l-57 -270h-189zM362 606q-33 31 -69.5 72t-54.5 78v10
h193q6 -32 17.5 -71t28.5 -77v-12h-115z" />
    <glyph glyph-name="Aringacute" unicode="&#x1fa;" horiz-adv-x="676" 
d="M372 875v5q22 16 51 38t47 40h208v-4q-24 -19 -55.5 -34.5t-62 -26.5t-52.5 -18h-136zM-59 0l363 682q-6 20 -6 44q0 58 36.5 91t94.5 33q55 0 93 -33t38 -90q0 -22 -8.5 -43t-20.5 -32l79 -652h-186l-9 134h-215l-61 -134h-198zM428 685q17 0 30.5 11.5t13.5 29.5
q0 19 -13 30.5t-30 11.5t-30 -11.5t-13 -30.5q0 -18 11 -29.5t31 -11.5zM270 286h139l-13 149q-1 23 -2 49t-1 54h-5q-6 -16 -13 -35t-11 -26z" />
    <glyph glyph-name="aringacute" unicode="&#x1fb;" horiz-adv-x="607" 
d="M330 864v5q14 11 35 27t40 33t31 29h209v-6q-25 -19 -58.5 -36.5t-66 -31t-54.5 -20.5h-136zM369 586q-58 0 -94.5 33t-36.5 90q0 58 36.5 91t94.5 33q55 0 93 -33t38 -90q0 -58 -38 -91t-93 -33zM369 668q17 0 30 11.5t13 29.5q0 19 -13 30.5t-30 11.5t-30 -11.5
t-13 -30.5q0 -18 11.5 -29.5t31.5 -11.5zM198 -10q-42 0 -78 20t-57.5 66t-21.5 125q0 40 9.5 89t28.5 97t48.5 88t69.5 64t90 24q47 0 77.5 -21.5t50.5 -56.5h4l26 68h151l-117 -553h-151l5 60h-4q-22 -31 -52 -50.5t-79 -19.5zM276 142q22 0 39.5 19.5t30.5 51t19 67.5
q6 30 6 61t-10 50.5t-30 19.5q-26 0 -48 -30t-35.5 -75.5t-13.5 -93.5q0 -70 42 -70z" />
    <glyph glyph-name="AEacute" unicode="&#x1fc;" horiz-adv-x="946" 
d="M-61 0l444 714h592l-32 -155h-233l-23 -112h217l-35 -155h-217l-28 -135h233l-33 -157h-424l28 134h-204l-83 -134h-202zM323 294h140l55 265h-33zM478 767v11q34 29 72 71t66 78h214v-7q-11 -13 -36.5 -34t-57.5 -43.5t-64 -43t-55 -32.5h-139z" />
    <glyph glyph-name="aeacute" unicode="&#x1fd;" horiz-adv-x="873" 
d="M198 -10q-42 0 -78 20t-57.5 66t-21.5 125q0 40 9.5 89t28.5 97t48.5 88t69.5 64t90 24q47 0 76 -20t52 -58h4l26 68h101v-46q23 23 59 39.5t77 16.5q76 0 122.5 -42t46.5 -112q0 -91 -71.5 -147t-225.5 -56h-29v-8q0 -72 80 -72q42 0 79.5 13t80.5 35v-134
q-38 -22 -79 -36t-104 -14q-87 0 -128 55l-15 -45h-111l5 60h-4q-22 -31 -52 -50.5t-79 -19.5zM544 324h14q64 0 89 24t25 50q0 16 -10 26.5t-31 10.5q-22 0 -40.5 -17t-30.5 -42.5t-16 -51.5zM276 142q22 0 39.5 19.5t30.5 51t19 67.5q3 15 4 30.5t1 30.5q0 31 -11.5 50.5
t-31.5 19.5q-26 0 -47 -30t-33.5 -75.5t-12.5 -93.5q0 -70 42 -70zM408 606v11q34 29 72 71t66 78h214v-7q-11 -13 -36.5 -34t-57.5 -43.5t-64 -43t-55 -32.5h-139z" />
    <glyph glyph-name="Oslashacute" unicode="&#x1fe;" horiz-adv-x="737" 
d="M124 -42l-78 57l57 71q-52 68 -52 179q0 83 23 164.5t70 148.5t118 107t167 40q47 0 85 -9.5t69 -25.5l45 56l76 -58l-48 -61q50 -70 50 -177q0 -83 -23 -164.5t-69.5 -148.5t-116 -107t-163.5 -40q-48 0 -87 9t-71 25zM245 263l227 288q-22 16 -56 16q-50 0 -88.5 -39
t-60.5 -103t-22 -138v-24zM342 148q50 0 88 37.5t60 100t22 139.5v22l-226 -285q23 -14 56 -14zM374 767v11q34 29 72 71t66 78h214v-7q-11 -13 -36.5 -34t-57.5 -43.5t-64 -43t-55 -32.5h-139z" />
    <glyph glyph-name="oslashacute" unicode="&#x1ff;" horiz-adv-x="628" 
d="M94 -54l-62 53l55 64q-22 27 -34 61.5t-12 78.5q0 71 20.5 135.5t61.5 115t101 80t139 29.5q37 0 67 -7.5t55 -20.5l51 59l62 -53l-51 -60q19 -25 29.5 -58t10.5 -73q0 -71 -20.5 -135.5t-61 -115t-100 -80t-137.5 -29.5q-34 0 -63 7t-53 17zM219 220l164 194
q-17 14 -40 14q-44 0 -80.5 -50t-42.5 -139q-1 -5 -1 -9.5v-9.5zM288 127q43 0 77 39.5t42 129.5q0 5 0.5 10.5t0.5 10.5l-155 -183q14 -7 35 -7zM305 606v11q34 29 72 71t66 78h214v-7q-11 -13 -36.5 -34t-57.5 -43.5t-64 -43t-55 -32.5h-139z" />
    <glyph glyph-name="uni0200" unicode="&#x200;" horiz-adv-x="676" 
d="M-59 0l363 714h246l60 -714h-186l-5 134h-219l-61 -134h-198zM270 286h143l-7 205q-1 24 -1.5 47.5t0.5 44.5h-3q-15 -45 -35 -88zM489 767q-33 31 -69.5 72t-54.5 78v10h169q6 -32 17 -71t28 -77v-12h-90zM292 767q-32 31 -68.5 72t-55.5 78v10h169q6 -32 17 -71t28 -77
v-12h-90z" />
    <glyph glyph-name="uni0201" unicode="&#x201;" horiz-adv-x="607" 
d="M198 -10q-42 0 -78 20t-57.5 66t-21.5 125q0 40 9.5 89t28.5 97t48.5 88t69.5 64t90 24q47 0 77.5 -21.5t50.5 -56.5h4l26 68h151l-117 -553h-151l5 60h-4q-22 -31 -52 -50.5t-79 -19.5zM276 142q22 0 39.5 19.5t30.5 51t19 67.5q6 30 6 61t-10 50.5t-30 19.5
q-26 0 -48 -30t-35.5 -75.5t-13.5 -93.5q0 -70 42 -70zM419 606q-33 31 -69.5 72t-54.5 78v10h169q6 -32 17 -71t28 -77v-12h-90zM222 606q-32 31 -68.5 72t-55.5 78v10h169q6 -32 17 -71t28 -77v-12h-90z" />
    <glyph glyph-name="uni0202" unicode="&#x202;" horiz-adv-x="676" 
d="M-59 0l363 714h246l60 -714h-186l-5 134h-219l-61 -134h-198zM270 286h143l-7 205q-1 24 -1.5 47.5t0.5 44.5h-3q-15 -45 -35 -88zM250 767q15 88 68 134.5t154 46.5q84 0 129 -42t45 -112q0 -17 -4 -27h-106q0 32 -22 47.5t-58 15.5q-32 0 -58.5 -12t-39.5 -51h-108z
" />
    <glyph glyph-name="uni0203" unicode="&#x203;" horiz-adv-x="607" 
d="M198 -10q-42 0 -78 20t-57.5 66t-21.5 125q0 40 9.5 89t28.5 97t48.5 88t69.5 64t90 24q47 0 77.5 -21.5t50.5 -56.5h4l26 68h151l-117 -553h-151l5 60h-4q-22 -31 -52 -50.5t-79 -19.5zM276 142q22 0 39.5 19.5t30.5 51t19 67.5q6 30 6 61t-10 50.5t-30 19.5
q-26 0 -48 -30t-35.5 -75.5t-13.5 -93.5q0 -70 42 -70zM180 606q15 88 68 134.5t154 46.5q84 0 129 -42t45 -112q0 -17 -4 -27h-106q0 32 -22 47.5t-58 15.5q-32 0 -58.5 -12t-39.5 -51h-108z" />
    <glyph glyph-name="uni0204" unicode="&#x204;" horiz-adv-x="562" 
d="M16 0l151 714h424l-32 -155h-233l-23 -112h217l-35 -155h-217l-28 -135h233l-33 -157h-424zM442 767q-33 31 -69.5 72t-54.5 78v10h169q6 -32 17 -71t28 -77v-12h-90zM245 767q-32 31 -68.5 72t-55.5 78v10h169q6 -32 17 -71t28 -77v-12h-90z" />
    <glyph glyph-name="uni0205" unicode="&#x205;" horiz-adv-x="579" 
d="M260 -10q-105 0 -162 58.5t-57 160.5q0 68 19.5 131.5t58.5 113.5t98.5 79.5t140.5 29.5q93 0 146 -42t53 -112q0 -91 -71.5 -147t-225.5 -56h-29v-8q0 -72 80 -72q42 0 79.5 13t80.5 35v-134q-44 -22 -91.5 -36t-119.5 -14zM250 324h14q64 0 89 24t25 50q0 16 -10 26.5
t-31 10.5q-22 0 -40.5 -17t-30.5 -42.5t-16 -51.5zM410 606q-33 31 -69.5 72t-54.5 78v10h169q6 -32 17 -71t28 -77v-12h-90zM213 606q-32 31 -68.5 72t-55.5 78v10h169q6 -32 17 -71t28 -77v-12h-90z" />
    <glyph glyph-name="uni0206" unicode="&#x206;" horiz-adv-x="562" 
d="M16 0l151 714h424l-32 -155h-233l-23 -112h217l-35 -155h-217l-28 -135h233l-33 -157h-424zM203 767q15 88 68 134.5t154 46.5q84 0 129 -42t45 -112q0 -17 -4 -27h-106q0 32 -22 47.5t-58 15.5q-32 0 -58.5 -12t-39.5 -51h-108z" />
    <glyph glyph-name="uni0207" unicode="&#x207;" horiz-adv-x="579" 
d="M260 -10q-105 0 -162 58.5t-57 160.5q0 68 19.5 131.5t58.5 113.5t98.5 79.5t140.5 29.5q93 0 146 -42t53 -112q0 -91 -71.5 -147t-225.5 -56h-29v-8q0 -72 80 -72q42 0 79.5 13t80.5 35v-134q-44 -22 -91.5 -36t-119.5 -14zM250 324h14q64 0 89 24t25 50q0 16 -10 26.5
t-31 10.5q-22 0 -40.5 -17t-30.5 -42.5t-16 -51.5zM151 606q15 88 68 134.5t154 46.5q84 0 129 -42t45 -112q0 -17 -4 -27h-106q0 32 -22 47.5t-58 15.5q-32 0 -58.5 -12t-39.5 -51h-108z" />
    <glyph glyph-name="uni0208" unicode="&#x208;" horiz-adv-x="426" 
d="M-36 0l23 109l94 39l88 414l-78 42l23 110h367l-23 -110l-98 -42l-88 -414l79 -39l-23 -109h-364zM355 767q-33 31 -69.5 72t-54.5 78v10h169q6 -32 17 -71t28 -77v-12h-90zM158 767q-32 31 -68.5 72t-55.5 78v10h169q6 -32 17 -71t28 -77v-12h-90z" />
    <glyph glyph-name="uni0209" unicode="&#x209;" horiz-adv-x="325" 
d="M11 0l117 553h190l-118 -553h-189zM280 606q-33 31 -69.5 72t-54.5 78v10h169q6 -32 17 -71t28 -77v-12h-90zM83 606q-32 31 -68.5 72t-55.5 78v10h169q6 -32 17 -71t28 -77v-12h-90z" />
    <glyph glyph-name="uni020A" unicode="&#x20a;" horiz-adv-x="426" 
d="M-36 0l23 109l94 39l88 414l-78 42l23 110h367l-23 -110l-98 -42l-88 -414l79 -39l-23 -109h-364zM116 767q15 88 68 134.5t154 46.5q84 0 129 -42t45 -112q0 -17 -4 -27h-106q0 32 -22 47.5t-58 15.5q-32 0 -58.5 -12t-39.5 -51h-108z" />
    <glyph glyph-name="uni020B" unicode="&#x20b;" horiz-adv-x="325" 
d="M11 0l117 553h190l-118 -553h-189zM41 606q15 88 68 134.5t154 46.5q84 0 129 -42t45 -112q0 -17 -4 -27h-106q0 32 -22 47.5t-58 15.5q-32 0 -58.5 -12t-39.5 -51h-108z" />
    <glyph glyph-name="uni020C" unicode="&#x20c;" horiz-adv-x="737" 
d="M325 -10q-137 0 -205.5 75t-68.5 200q0 83 23.5 164.5t71 148.5t120.5 107t172 40q132 0 200 -75.5t68 -199.5q0 -83 -22.5 -164.5t-69.5 -148.5t-118.5 -107t-170.5 -40zM342 148q48 0 87 41t61.5 109t22.5 150q0 56 -23.5 87.5t-67.5 31.5q-40 0 -73 -26.5t-56.5 -70
t-36 -97t-12.5 -107.5q0 -118 98 -118zM513 767q-33 31 -69.5 72t-54.5 78v10h169q6 -32 17 -71t28 -77v-12h-90zM316 767q-32 31 -68.5 72t-55.5 78v10h169q6 -32 17 -71t28 -77v-12h-90z" />
    <glyph glyph-name="uni020D" unicode="&#x20d;" horiz-adv-x="607" 
d="M254 -10q-102 0 -157.5 55.5t-55.5 157.5q0 71 20 135.5t59 115t97.5 80t135.5 29.5q102 0 157.5 -55.5t55.5 -157.5q0 -71 -20 -135.5t-59 -115t-97.5 -80t-135.5 -29.5zM275 132q28 0 50 33.5t35 85t13 105.5q0 65 -42 65q-28 0 -50 -33.5t-34.5 -84.5t-12.5 -106
q0 -65 41 -65zM416 606q-33 31 -69.5 72t-54.5 78v10h169q6 -32 17 -71t28 -77v-12h-90zM219 606q-32 31 -68.5 72t-55.5 78v10h169q6 -32 17 -71t28 -77v-12h-90z" />
    <glyph glyph-name="uni020E" unicode="&#x20e;" horiz-adv-x="737" 
d="M325 -10q-137 0 -205.5 75t-68.5 200q0 83 23.5 164.5t71 148.5t120.5 107t172 40q132 0 200 -75.5t68 -199.5q0 -83 -22.5 -164.5t-69.5 -148.5t-118.5 -107t-170.5 -40zM342 148q48 0 87 41t61.5 109t22.5 150q0 56 -23.5 87.5t-67.5 31.5q-40 0 -73 -26.5t-56.5 -70
t-36 -97t-12.5 -107.5q0 -118 98 -118zM274 767q15 88 68 134.5t154 46.5q84 0 129 -42t45 -112q0 -17 -4 -27h-106q0 32 -22 47.5t-58 15.5q-32 0 -58.5 -12t-39.5 -51h-108z" />
    <glyph glyph-name="uni020F" unicode="&#x20f;" horiz-adv-x="607" 
d="M254 -10q-102 0 -157.5 55.5t-55.5 157.5q0 71 20 135.5t59 115t97.5 80t135.5 29.5q102 0 157.5 -55.5t55.5 -157.5q0 -71 -20 -135.5t-59 -115t-97.5 -80t-135.5 -29.5zM275 132q28 0 50 33.5t35 85t13 105.5q0 65 -42 65q-28 0 -50 -33.5t-34.5 -84.5t-12.5 -106
q0 -65 41 -65zM177 606q15 88 68 134.5t154 46.5q84 0 129 -42t45 -112q0 -17 -4 -27h-106q0 32 -22 47.5t-58 15.5q-32 0 -58.5 -12t-39.5 -51h-108z" />
    <glyph glyph-name="uni0210" unicode="&#x210;" horiz-adv-x="650" 
d="M16 0l151 714h189q123 0 188.5 -49t65.5 -147q0 -66 -21.5 -109.5t-53.5 -70t-63 -39.5l129 -299h-208l-95 260h-36l-55 -260h-191zM293 405h25q38 0 69.5 23t31.5 78q0 26 -14.5 44t-51.5 18h-26zM472 767q-33 31 -69.5 72t-54.5 78v10h169q6 -32 17 -71t28 -77v-12h-90
zM275 767q-32 31 -68.5 72t-55.5 78v10h169q6 -32 17 -71t28 -77v-12h-90z" />
    <glyph glyph-name="uni0211" unicode="&#x211;" horiz-adv-x="437" 
d="M11 0l117 553h151l-9 -92h4q34 59 72 80.5t94 21.5q10 0 22 -1.5t17 -2.5l-41 -187q-10 4 -26 7.5t-34 3.5q-44 0 -76.5 -30.5t-49.5 -109.5l-52 -243h-189zM361 606q-33 31 -69.5 72t-54.5 78v10h169q6 -32 17 -71t28 -77v-12h-90zM164 606q-32 31 -68.5 72t-55.5 78v10
h169q6 -32 17 -71t28 -77v-12h-90z" />
    <glyph glyph-name="uni0212" unicode="&#x212;" horiz-adv-x="650" 
d="M16 0l151 714h189q123 0 188.5 -49t65.5 -147q0 -66 -21.5 -109.5t-53.5 -70t-63 -39.5l129 -299h-208l-95 260h-36l-55 -260h-191zM293 405h25q38 0 69.5 23t31.5 78q0 26 -14.5 44t-51.5 18h-26zM233 767q15 88 68 134.5t154 46.5q84 0 129 -42t45 -112q0 -17 -4 -27
h-106q0 32 -22 47.5t-58 15.5q-32 0 -58.5 -12t-39.5 -51h-108z" />
    <glyph glyph-name="uni0213" unicode="&#x213;" horiz-adv-x="437" 
d="M11 0l117 553h151l-9 -92h4q34 59 72 80.5t94 21.5q10 0 22 -1.5t17 -2.5l-41 -187q-10 4 -26 7.5t-34 3.5q-44 0 -76.5 -30.5t-49.5 -109.5l-52 -243h-189zM122 606q15 88 68 134.5t154 46.5q84 0 129 -42t45 -112q0 -17 -4 -27h-106q0 32 -22 47.5t-58 15.5
q-32 0 -58.5 -12t-39.5 -51h-108z" />
    <glyph glyph-name="uni0214" unicode="&#x214;" horiz-adv-x="701" 
d="M298 -10q-74 0 -127.5 27t-81.5 73.5t-28 106.5q0 15 1.5 32.5t4.5 33.5l97 451h191l-95 -446q-3 -14 -5 -28.5t-2 -27.5q0 -29 16 -45.5t47 -16.5q43 0 68 29t40 99l93 436h191l-97 -455q-19 -87 -55.5 -147t-99 -91t-158.5 -31zM490 767q-33 31 -69.5 72t-54.5 78v10
h169q6 -32 17 -71t28 -77v-12h-90zM293 767q-32 31 -68.5 72t-55.5 78v10h169q6 -32 17 -71t28 -77v-12h-90z" />
    <glyph glyph-name="uni0215" unicode="&#x215;" horiz-adv-x="622" 
d="M193 -10q-51 0 -83.5 21.5t-47.5 57t-15 78.5q0 28 3.5 57t8.5 55l62 294h189l-63 -301q-3 -13 -6 -32.5t-3 -36.5q0 -21 11 -31.5t26 -10.5q25 0 49.5 34.5t40.5 108.5l57 269h189l-117 -553h-151l6 77h-4q-27 -47 -63 -67t-89 -20zM421 606q-33 31 -69.5 72t-54.5 78
v10h169q6 -32 17 -71t28 -77v-12h-90zM224 606q-32 31 -68.5 72t-55.5 78v10h169q6 -32 17 -71t28 -77v-12h-90z" />
    <glyph glyph-name="uni0216" unicode="&#x216;" horiz-adv-x="701" 
d="M298 -10q-74 0 -127.5 27t-81.5 73.5t-28 106.5q0 15 1.5 32.5t4.5 33.5l97 451h191l-95 -446q-3 -14 -5 -28.5t-2 -27.5q0 -29 16 -45.5t47 -16.5q43 0 68 29t40 99l93 436h191l-97 -455q-19 -87 -55.5 -147t-99 -91t-158.5 -31zM251 767q15 88 68 134.5t154 46.5
q84 0 129 -42t45 -112q0 -17 -4 -27h-106q0 32 -22 47.5t-58 15.5q-32 0 -58.5 -12t-39.5 -51h-108z" />
    <glyph glyph-name="uni0217" unicode="&#x217;" horiz-adv-x="622" 
d="M193 -10q-51 0 -83.5 21.5t-47.5 57t-15 78.5q0 28 3.5 57t8.5 55l62 294h189l-63 -301q-3 -13 -6 -32.5t-3 -36.5q0 -21 11 -31.5t26 -10.5q25 0 49.5 34.5t40.5 108.5l57 269h189l-117 -553h-151l6 77h-4q-27 -47 -63 -67t-89 -20zM182 606q15 88 68 134.5t154 46.5
q84 0 129 -42t45 -112q0 -17 -4 -27h-106q0 32 -22 47.5t-58 15.5q-32 0 -58.5 -12t-39.5 -51h-108z" />
    <glyph glyph-name="uni0218" unicode="&#x218;" horiz-adv-x="548" 
d="M205 -10q-53 0 -101 12t-83 35v171q39 -24 92 -42.5t98 -18.5q73 0 73 58q0 27 -23.5 49t-56.5 49q-50 41 -79.5 87.5t-29.5 111.5q0 64 32 114.5t88.5 79t132.5 28.5q58 0 112 -13.5t98 -38.5l-66 -145q-34 17 -71.5 30t-70.5 13q-40 0 -52.5 -18.5t-12.5 -35.5
q0 -22 16 -43.5t63 -56.5q59 -44 86 -90.5t27 -106.5q0 -107 -70.5 -168t-201.5 -61zM68 -221v13q13 32 28 73.5t25 73.5h177v-10q-24 -40 -52.5 -77t-61.5 -73h-116z" />
    <glyph glyph-name="uni0219" unicode="&#x219;" horiz-adv-x="502" 
d="M189 -10q-55 0 -98.5 8t-75.5 23v152q45 -25 83.5 -34.5t78.5 -9.5q11 0 27 2.5t27.5 9.5t11.5 22q0 11 -5 20t-21.5 21t-49.5 30q-52 28 -75.5 65t-23.5 89q0 78 55.5 126.5t171.5 48.5q54 0 99.5 -13t87.5 -39l-59 -123q-28 18 -62.5 32t-63.5 14q-37 0 -37 -33
q0 -14 15 -25t50 -28q110 -54 110 -156q0 -103 -66.5 -152.5t-179.5 -49.5zM47 -221v13q13 32 28 73.5t25 73.5h177v-10q-24 -40 -52.5 -77t-61.5 -73h-116z" />
    <glyph glyph-name="uni021A" unicode="&#x21a;" horiz-adv-x="552" 
d="M115 0l116 556h-155l34 158h502l-35 -158h-155l-116 -556h-191zM72 -221v13q13 32 28 73.5t25 73.5h177v-10q-24 -40 -52.5 -77t-61.5 -73h-116z" />
    <glyph glyph-name="uni021B" unicode="&#x21b;" horiz-adv-x="457" 
d="M200 -10q-72 0 -109.5 31t-37.5 102q0 20 3.5 46t8.5 46l41 196h-75l20 93l106 43l67 117h126l-24 -111h141l-31 -142h-141l-41 -187q-3 -14 -5.5 -28.5t-2.5 -22.5q0 -17 9 -24t22 -7q19 0 42 6.5t47 16.5v-142q-31 -15 -71.5 -24t-94.5 -9zM53 -221v13q13 32 28 73.5
t25 73.5h177v-10q-24 -40 -52.5 -77t-61.5 -73h-116z" />
    <glyph glyph-name="uni021C" unicode="&#x21c;" horiz-adv-x="638" 
d="M-46 -180l36 172q85 16 157 35.5t125.5 46t83 63.5t29.5 87q0 21 -7.5 38t-20.5 30q-38 -14 -81 -25t-92 -22v147q72 18 129 34t90 37t33 55q0 28 -20.5 38t-55.5 10q-44 0 -95.5 -16t-97.5 -40l-53 133q70 41 141 61t153 20q71 0 121.5 -24.5t77.5 -66t27 -91.5
q0 -59 -32 -104.5t-89 -76.5q29 -21 49 -52.5t20 -83.5q0 -74 -34 -132t-94.5 -101.5t-140 -75.5t-171.5 -55.5t-188 -40.5z" />
    <glyph glyph-name="uni021D" unicode="&#x21d;" horiz-adv-x="551" 
d="M-63 -240l34 160q125 21 196 45.5t100 57t29 78.5q0 37 -16 59q-34 -11 -69.5 -20.5t-70.5 -16.5v134q88 20 133.5 36.5t62 33.5t16.5 41q0 41 -72 41q-44 0 -88 -9.5t-82 -23.5l-24 136q60 24 117 36t118 12q107 0 160 -44.5t53 -112.5q0 -59 -30 -103t-81 -74
q29 -21 47 -51.5t18 -73.5q0 -69 -32 -119.5t-87 -87t-126 -61.5t-149.5 -42t-156.5 -31z" />
    <glyph glyph-name="uni021E" unicode="&#x21e;" horiz-adv-x="714" 
d="M16 0l151 714h191l-55 -265h170l55 265h191l-151 -714h-191l61 291h-169l-62 -291h-191zM340 767q-10 22 -25 49.5t-31.5 54t-31.5 45.5v11h130q11 -10 25.5 -25.5t28 -32l22.5 -27.5q28 22 57 43.5t60 41.5h134v-11q-25 -21 -52.5 -47.5t-53 -53t-45.5 -48.5h-218z" />
    <glyph glyph-name="uni021F" unicode="&#x21f;" horiz-adv-x="622" 
d="M11 0l161 760h189l-26 -122q-7 -35 -20 -73.5t-23 -64.5h4q26 33 59 48t74 15q51 0 83.5 -21.5t47.5 -57.5t15 -78q0 -28 -3.5 -57t-8.5 -55l-62 -294h-189l63 302q3 13 6 32.5t3 36.5q0 21 -11 31.5t-26 10.5q-28 0 -51 -33.5t-39 -109.5l-57 -270h-189zM165 813
q-10 22 -25 49.5t-31.5 54t-31.5 45.5v11h130q11 -10 25.5 -25.5t28 -32l22.5 -27.5q28 22 57 43.5t60 41.5h134v-11q-25 -21 -52.5 -47.5t-53 -53t-45.5 -48.5h-218z" />
    <glyph glyph-name="uni0220" unicode="&#x220;" horiz-adv-x="757" 
d="M370 -240l134 626q7 34 11.5 62t4.5 54q0 32 -14 51t-46 19q-46 0 -82 -30.5t-61 -82t-39 -116.5l-72 -343h-191l151 714h160l-11 -114h4q41 58 92 91.5t122 33.5q91 0 135 -54.5t44 -140.5q0 -28 -3.5 -58t-10.5 -66l-136 -646h-192z" />
    <glyph glyph-name="uni0221" unicode="&#x221;" horiz-adv-x="771" 
d="M535 -87l-96 19q6 24 12 46.5t13 43.5q-54 26 -82 73h-3q-24 -52 -71 -78.5t-103 -26.5q-46 0 -83 20t-59 66t-22 125q0 40 9.5 89t28.5 97t48 88t69 64t90 24q45 0 69.5 -20t46.5 -54h4q0 18 3 53.5t10 70.5l30 147h191l-106 -498q-4 -17 -7 -36.5t-3 -33.5q0 -16 3 -29
q31 46 74 71.5t106 25.5q42 0 68 -17.5t38 -44t12 -52.5q0 -42 -21.5 -77.5t-64.5 -57t-109 -21.5q-20 0 -38.5 1.5t-35.5 3.5q-5 -18 -10.5 -38.5t-10.5 -43.5zM276 142q22 0 39.5 19.5t30 50t19 65t6.5 64.5q0 31 -9.5 50.5t-29.5 19.5q-26 0 -48.5 -30t-36 -75.5
t-13.5 -93.5q0 -70 42 -70zM643 101q32 0 45.5 8.5t13.5 21.5q0 22 -29 22q-44 0 -74 -49q19 -3 44 -3z" />
    <glyph glyph-name="uni0222" unicode="&#x222;" horiz-adv-x="820" 
d="M375 -41q-114 0 -190 31.5t-113.5 87.5t-37.5 129q0 99 47 159t130 95q-37 18 -52.5 54t-15.5 69q0 16 2 34.5t8 43.5l12 52h187l-8 -46q-2 -15 -3.5 -25t-1.5 -28q0 -38 26 -68t86 -30q74 0 111.5 33t50.5 95l14 69h193l-14 -66q-14 -68 -47 -124t-98 -90
q49 -41 67 -84.5t18 -94.5q0 -145 -97 -220.5t-274 -75.5zM382 113q86 0 128.5 37.5t42.5 104.5q0 43 -32.5 75t-112.5 32q-85 0 -133 -35.5t-48 -97.5q0 -58 42.5 -87t112.5 -29z" />
    <glyph glyph-name="uni0223" unicode="&#x223;" horiz-adv-x="665" 
d="M306 -10q-79 0 -138.5 27t-92.5 79t-33 126q0 98 47 162t138 87q-33 19 -53 55t-20 80q0 26 3 48.5t8 43.5l14 62h185l-17 -84q-5 -22 -8 -41t-3 -35q0 -31 13.5 -48.5t40.5 -17.5q30 0 46.5 16.5t26 48t18.5 76.5l17 85h189l-22 -108q-14 -70 -50.5 -123t-105.5 -76
q41 -23 72.5 -68t31.5 -117q0 -41 -13.5 -89t-47.5 -91t-94 -70.5t-152 -27.5zM312 137q38 0 63.5 22.5t37.5 59.5t12 81q0 40 -21 63.5t-59 23.5q-41 0 -66.5 -25.5t-37.5 -61.5t-12 -67q0 -43 21.5 -69.5t61.5 -26.5z" />
    <glyph glyph-name="uni0224" unicode="&#x224;" horiz-adv-x="539" 
d="M269 -248q-26 0 -47.5 3.5t-41.5 10.5l1 122q7 -4 22 -6.5t27 -2.5q26 0 39.5 15t20.5 43l14 63h-349l23 118l337 440h-234l33 156h481l-25 -120l-342 -438h265l-45 -210q-22 -103 -62 -148.5t-117 -45.5z" />
    <glyph glyph-name="uni0225" unicode="&#x225;" horiz-adv-x="485" 
d="M204 -240q-50 0 -83 13l-1 122q10 -4 22 -6.5t26 -2.5q23 0 37 12.5t20 42.5l12 59h-257l21 108l245 299h-170l33 146h396l-26 -118l-242 -289h187l-42 -197q-22 -106 -64 -147.5t-114 -41.5z" />
    <glyph glyph-name="uni0226" unicode="&#x226;" horiz-adv-x="676" 
d="M-59 0l363 714h246l60 -714h-186l-5 134h-219l-61 -134h-198zM270 286h143l-7 205q-1 24 -1.5 47.5t0.5 44.5h-3q-15 -45 -35 -88zM445 767q-40 0 -66.5 14t-26.5 55q0 54 29 78t82 24q23 0 44 -5.5t35 -20.5t14 -43q0 -45 -24.5 -73.5t-86.5 -28.5z" />
    <glyph glyph-name="uni0227" unicode="&#x227;" horiz-adv-x="607" 
d="M198 -10q-42 0 -78 20t-57.5 66t-21.5 125q0 40 9.5 89t28.5 97t48.5 88t69.5 64t90 24q47 0 77.5 -21.5t50.5 -56.5h4l26 68h151l-117 -553h-151l5 60h-4q-22 -31 -52 -50.5t-79 -19.5zM276 142q22 0 39.5 19.5t30.5 51t19 67.5q6 30 6 61t-10 50.5t-30 19.5
q-26 0 -48 -30t-35.5 -75.5t-13.5 -93.5q0 -70 42 -70zM375 606q-40 0 -66.5 14t-26.5 55q0 54 29 78t82 24q23 0 44 -5.5t35 -20.5t14 -43q0 -45 -24.5 -73.5t-86.5 -28.5z" />
    <glyph glyph-name="uni0228" unicode="&#x228;" horiz-adv-x="562" 
d="M16 0l151 714h424l-32 -155h-233l-23 -112h217l-35 -155h-217l-28 -135h233l-33 -157h-424zM220 -240q-30 0 -53 3.5t-41 10.5v100q16 -5 40.5 -9t33.5 -4q33 0 33 24q0 13 -13 26.5t-58 22.5l37 66h100l-12 -20q38 -8 62.5 -30t24.5 -65q0 -59 -40 -92t-114 -33z" />
    <glyph glyph-name="uni0229" unicode="&#x229;" horiz-adv-x="579" 
d="M260 -10q-105 0 -162 58.5t-57 160.5q0 68 19.5 131.5t58.5 113.5t98.5 79.5t140.5 29.5q93 0 146 -42t53 -112q0 -91 -71.5 -147t-225.5 -56h-29v-8q0 -72 80 -72q42 0 79.5 13t80.5 35v-134q-44 -22 -91.5 -36t-119.5 -14zM250 324h14q64 0 89 24t25 50q0 16 -10 26.5
t-31 10.5q-22 0 -40.5 -17t-30.5 -42.5t-16 -51.5zM218 -240q-30 0 -53 3.5t-41 10.5v100q16 -5 40.5 -9t33.5 -4q33 0 33 24q0 13 -13 26.5t-58 22.5l37 66h100l-12 -20q38 -8 62.5 -30t24.5 -65q0 -59 -40 -92t-114 -33z" />
    <glyph glyph-name="uni022A" unicode="&#x22a;" horiz-adv-x="737" 
d="M325 -10q-137 0 -205.5 75t-68.5 200q0 83 23.5 164.5t71 148.5t120.5 107t172 40q132 0 200 -75.5t68 -199.5q0 -83 -22.5 -164.5t-69.5 -148.5t-118.5 -107t-170.5 -40zM342 148q48 0 87 41t61.5 109t22.5 150q0 56 -23.5 87.5t-67.5 31.5q-40 0 -73 -26.5t-56.5 -70
t-36 -97t-12.5 -107.5q0 -118 98 -118zM335 957l25 115h325l-24 -115h-326zM369 780q-33 0 -55 11.5t-22 46.5q0 45 24 65t67 20q28 0 52.5 -10.5t24.5 -46.5q0 -39 -20 -62.5t-71 -23.5zM589 780q-33 0 -55 11.5t-22 46.5q0 45 24 65t67 20q28 0 52 -10.5t24 -46.5
q0 -39 -19.5 -62.5t-70.5 -23.5z" />
    <glyph glyph-name="uni022B" unicode="&#x22b;" horiz-adv-x="607" 
d="M254 -10q-102 0 -157.5 55.5t-55.5 157.5q0 71 20 135.5t59 115t97.5 80t135.5 29.5q102 0 157.5 -55.5t55.5 -157.5q0 -71 -20 -135.5t-59 -115t-97.5 -80t-135.5 -29.5zM275 132q28 0 50 33.5t35 85t13 105.5q0 65 -42 65q-28 0 -50 -33.5t-34.5 -84.5t-12.5 -106
q0 -65 41 -65zM238 796l25 115h325l-24 -115h-326zM272 619q-33 0 -55 11.5t-22 46.5q0 45 24 65t67 20q28 0 52.5 -10.5t24.5 -46.5q0 -39 -20 -62.5t-71 -23.5zM492 619q-33 0 -55 11.5t-22 46.5q0 45 24 65t67 20q28 0 52 -10.5t24 -46.5q0 -39 -19.5 -62.5t-70.5 -23.5z
" />
    <glyph glyph-name="uni022C" unicode="&#x22c;" horiz-adv-x="737" 
d="M325 -10q-137 0 -205.5 75t-68.5 200q0 83 23.5 164.5t71 148.5t120.5 107t172 40q132 0 200 -75.5t68 -199.5q0 -83 -22.5 -164.5t-69.5 -148.5t-118.5 -107t-170.5 -40zM342 148q48 0 87 41t61.5 109t22.5 150q0 56 -23.5 87.5t-67.5 31.5q-40 0 -73 -26.5t-56.5 -70
t-36 -97t-12.5 -107.5q0 -118 98 -118zM333 947l25 115h325l-24 -115h-326zM255 764q17 80 56.5 113.5t96.5 33.5q29 0 52 -10.5t44 -21t44 -10.5q17 0 32 10.5t24 32.5h93q-19 -81 -59 -114t-98 -33q-30 0 -55 10.5t-47 21t-44 10.5q-15 0 -29.5 -12t-17.5 -31h-92z" />
    <glyph glyph-name="uni022D" unicode="&#x22d;" horiz-adv-x="607" 
d="M254 -10q-102 0 -157.5 55.5t-55.5 157.5q0 71 20 135.5t59 115t97.5 80t135.5 29.5q102 0 157.5 -55.5t55.5 -157.5q0 -71 -20 -135.5t-59 -115t-97.5 -80t-135.5 -29.5zM275 132q28 0 50 33.5t35 85t13 105.5q0 65 -42 65q-28 0 -50 -33.5t-34.5 -84.5t-12.5 -106
q0 -65 41 -65zM236 786l25 115h325l-24 -115h-326zM158 603q17 80 56.5 113.5t96.5 33.5q29 0 52 -10.5t44 -21t44 -10.5q17 0 32 10.5t24 32.5h93q-19 -81 -59 -114t-98 -33q-30 0 -55 10.5t-47 21t-44 10.5q-15 0 -29.5 -12t-17.5 -31h-92z" />
    <glyph glyph-name="uni022E" unicode="&#x22e;" horiz-adv-x="737" 
d="M325 -10q-137 0 -205.5 75t-68.5 200q0 83 23.5 164.5t71 148.5t120.5 107t172 40q132 0 200 -75.5t68 -199.5q0 -83 -22.5 -164.5t-69.5 -148.5t-118.5 -107t-170.5 -40zM342 148q48 0 87 41t61.5 109t22.5 150q0 56 -23.5 87.5t-67.5 31.5q-40 0 -73 -26.5t-56.5 -70
t-36 -97t-12.5 -107.5q0 -118 98 -118zM469 767q-40 0 -66.5 14t-26.5 55q0 54 29 78t82 24q23 0 44 -5.5t35 -20.5t14 -43q0 -45 -24.5 -73.5t-86.5 -28.5z" />
    <glyph glyph-name="uni022F" unicode="&#x22f;" horiz-adv-x="607" 
d="M254 -10q-102 0 -157.5 55.5t-55.5 157.5q0 71 20 135.5t59 115t97.5 80t135.5 29.5q102 0 157.5 -55.5t55.5 -157.5q0 -71 -20 -135.5t-59 -115t-97.5 -80t-135.5 -29.5zM275 132q28 0 50 33.5t35 85t13 105.5q0 65 -42 65q-28 0 -50 -33.5t-34.5 -84.5t-12.5 -106
q0 -65 41 -65zM372 606q-40 0 -66.5 14t-26.5 55q0 54 29 78t82 24q23 0 44 -5.5t35 -20.5t14 -43q0 -45 -24.5 -73.5t-86.5 -28.5z" />
    <glyph glyph-name="uni0230" unicode="&#x230;" horiz-adv-x="737" 
d="M325 -10q-137 0 -205.5 75t-68.5 200q0 83 23.5 164.5t71 148.5t120.5 107t172 40q132 0 200 -75.5t68 -199.5q0 -83 -22.5 -164.5t-69.5 -148.5t-118.5 -107t-170.5 -40zM342 148q48 0 87 41t61.5 109t22.5 150q0 56 -23.5 87.5t-67.5 31.5q-40 0 -73 -26.5t-56.5 -70
t-36 -97t-12.5 -107.5q0 -118 98 -118zM333 998l25 115h325l-24 -115h-326zM471 790q-40 0 -66.5 14t-26.5 55q0 54 29 78t82 24q23 0 44 -5.5t35 -20.5t14 -43q0 -45 -24.5 -73.5t-86.5 -28.5z" />
    <glyph glyph-name="uni0231" unicode="&#x231;" horiz-adv-x="607" 
d="M254 -10q-102 0 -157.5 55.5t-55.5 157.5q0 71 20 135.5t59 115t97.5 80t135.5 29.5q102 0 157.5 -55.5t55.5 -157.5q0 -71 -20 -135.5t-59 -115t-97.5 -80t-135.5 -29.5zM275 132q28 0 50 33.5t35 85t13 105.5q0 65 -42 65q-28 0 -50 -33.5t-34.5 -84.5t-12.5 -106
q0 -65 41 -65zM235 804l25 115h325l-24 -115h-326zM375 610q-38 0 -64 12.5t-26 48.5q0 48 28.5 69t79.5 21q22 0 42 -5t33.5 -18t13.5 -38q0 -40 -23.5 -65t-83.5 -25z" />
    <glyph glyph-name="uni0232" unicode="&#x232;" horiz-adv-x="604" 
d="M137 0l59 277l-116 437h197l44 -265l152 265h213l-299 -437l-59 -277h-191zM212 767l25 115h325l-24 -115h-326z" />
    <glyph glyph-name="uni0233" unicode="&#x233;" horiz-adv-x="544" 
d="M12 -240q-28 0 -46 2.5t-29 5.5v150q9 -2 23 -4t30 -2q44 0 70.5 18t47.5 56l11 20l-79 547h190l19 -254q2 -25 2 -48t-1 -45h4q7 22 16.5 49.5t17.5 45.5l109 252h203l-327 -623q-45 -86 -106 -128t-155 -42zM155 606l25 115h325l-24 -115h-326z" />
    <glyph glyph-name="uni0234" unicode="&#x234;" horiz-adv-x="493" 
d="M89 -102l-116 32q14 56 36.5 105.5t53.5 89.5q-8 29 -6.5 63t7.5 64l108 508h189l-108 -512q47 12 102 12q54 0 85 -17.5t44 -44t13 -52.5q0 -42 -21.5 -77.5t-64.5 -57t-109 -21.5q-56 0 -97.5 10.5t-70.5 29.5q-14 -28 -25 -61t-20 -71zM318 103q29 0 42.5 8.5
t13.5 22.5q0 13 -13 19.5t-34 6.5q-42 0 -75 -12q9 -25 27 -35t39 -10z" />
    <glyph glyph-name="uni0235" unicode="&#x235;" horiz-adv-x="813" 
d="M461 -80l-122 34q8 33 19 56t23 45q-20 23 -27.5 65t5.5 103l16 79q2 13 5.5 32.5t3.5 36.5q0 21 -11 31.5t-26 10.5q-28 0 -51.5 -34.5t-38.5 -108.5l-57 -270h-189l117 553h151l-6 -77h4q27 46 63 66.5t89 20.5q51 0 83.5 -21.5t47.5 -57.5t15 -78q0 -28 -3.5 -56.5
t-9.5 -55.5l-18 -81q22 19 56.5 33t78.5 14q42 0 68.5 -17.5t38.5 -44t12 -52.5q0 -42 -24 -77.5t-70 -57t-111 -21.5q-28 0 -54.5 3t-44.5 7q-10 -14 -18 -35t-15 -45zM616 103q32 0 45 7.5t13 21.5q0 22 -30 22q-25 0 -43 -11.5t-31 -27.5q11 -7 22.5 -9.5t23.5 -2.5z" />
    <glyph glyph-name="uni0236" unicode="&#x236;" horiz-adv-x="500" 
d="M169 -80l-122 34q8 33 19 56t23 45q-20 23 -27.5 65t5.5 103l39 188h-75l20 93l106 43l67 117h126l-24 -111h141l-31 -142h-141l-43 -198q22 19 56.5 33t78.5 14q42 0 68 -17.5t38.5 -44t12.5 -52.5q0 -42 -24 -77.5t-70 -57t-111 -21.5q-28 0 -54.5 3t-44.5 7
q-10 -14 -18 -35t-15 -45zM324 103q32 0 45 7.5t13 21.5q0 22 -30 22q-25 0 -43 -11.5t-31 -27.5q11 -7 22.5 -9.5t23.5 -2.5z" />
    <glyph glyph-name="uni0237" unicode="&#x237;" horiz-adv-x="325" 
d="M-28 -240q-26 0 -55 4t-46 9v148q18 -6 30 -7.5t25 -1.5q30 0 53.5 16.5t31.5 55.5l121 569h189l-127 -599q-10 -50 -35.5 -94.5t-71 -72t-115.5 -27.5z" />
    <glyph glyph-name="uni0238" unicode="&#x238;" horiz-adv-x="886" 
d="M227 -10q-53 0 -95.5 20t-66.5 66t-24 125q0 40 9.5 89t28.5 97t48 88t69 64t90 24q45 0 69.5 -20t46.5 -54h4q0 6 1 27t4 47.5t8 49.5l30 147h191l-24 -113q-8 -39 -14.5 -64.5t-13.5 -44.5t-16 -38h4q20 24 43 43.5t69 19.5q42 0 78 -20t57.5 -66.5t21.5 -124.5
q0 -40 -9.5 -89t-29.5 -97t-51 -88t-73.5 -64t-97.5 -24q-58 0 -103.5 21.5t-74.5 71.5q-28 -36 -72 -64.5t-107 -28.5zM276 142q22 0 39.5 19.5t30 50t19 65t6.5 64.5q0 31 -9.5 50.5t-29.5 19.5q-26 0 -48.5 -30t-36 -75.5t-13.5 -93.5q0 -70 42 -70zM562 142
q20 0 36 18.5t28.5 48t19 64.5t6.5 68q0 70 -42 70q-22 0 -39.5 -19t-29.5 -49.5t-18.5 -65t-6.5 -65.5q0 -32 10 -51t36 -19z" />
    <glyph glyph-name="uni0239" unicode="&#x239;" horiz-adv-x="886" 
d="M659 563q53 0 95.5 -20t66.5 -66t24 -125q0 -40 -9.5 -89t-28.5 -97t-48 -88t-69 -64t-90 -24q-45 0 -69.5 20t-46.5 54h-4q0 -6 -1 -27t-4 -47.5t-8 -49.5l-30 -147h-191l24 113q8 39 14.5 64.5t13.5 44.5t16 38h-4q-20 -24 -43 -43.5t-69 -19.5q-42 0 -78 20
t-57.5 66.5t-21.5 124.5q0 40 9.5 89t29.5 97t51 88t73.5 64t97.5 24q58 0 103.5 -21.5t74.5 -71.5q28 36 72 64.5t107 28.5zM610 411q-22 0 -39.5 -19.5t-30 -50t-19 -65t-6.5 -64.5q0 -31 9.5 -50.5t29.5 -19.5q26 0 48.5 30t36 75.5t13.5 93.5q0 70 -42 70zM324 411
q-20 0 -36 -18.5t-28.5 -48t-19 -64.5t-6.5 -68q0 -70 42 -70q22 0 39.5 19t29.5 49.5t18.5 65t6.5 65.5q0 32 -10 51t-36 19z" />
    <glyph glyph-name="uni023A" unicode="&#x23a;" horiz-adv-x="676" 
d="M-59 0l363 714h197l22 46h93l-59 -127l53 -633h-186l-5 134h-95l-98 -209h-94l98 209h-30l-61 -134h-198zM270 286h31l104 223q0 19 -0.5 38t0.5 36h-3q-15 -45 -35 -88zM413 286l-1 37l-17 -37h18z" />
    <glyph glyph-name="uni023B" unicode="&#x23b;" horiz-adv-x="630" 
d="M149 -75l41 88q-70 31 -104.5 97.5t-34.5 157.5q0 64 14 129t42.5 124t73.5 105t107 72.5t142 26.5q47 0 90 -8l20 43h93l-31 -67q31 -13 63 -32l-72 -149q-34 20 -61 32l-185 -396h3q44 0 85.5 11t94.5 33v-158q-52 -23 -106 -33.5t-109 -10.5q-21 0 -41 2l-31 -67h-94z
M244 278q0 -62 26 -95l179 382q-9 1 -19 1q-44 0 -78 -24t-58.5 -65t-37 -92.5t-12.5 -106.5z" />
    <glyph glyph-name="uni023C" unicode="&#x23c;" horiz-adv-x="504" 
d="M79 -145l72 154q-49 22 -79.5 72.5t-30.5 134.5q0 98 36.5 176.5t103 124.5t156.5 46q38 0 71 -5l62 132h93l-72 -155q12 -5 25 -11l-60 -140q-15 7 -30 12l-119 -253q31 2 60.5 13t62.5 28v-150q-39 -21 -82 -32.5t-101 -11.5h-11l-63 -135h-94zM231 228q0 -23 4 -40
l105 225q-28 -2 -48.5 -21t-34 -47.5t-20 -59.5t-6.5 -57z" />
    <glyph glyph-name="uni023D" unicode="&#x23d;" horiz-adv-x="527" 
d="M16 0l57 268h-56l35 154h53l62 292h191l-62 -292h81l-35 -154h-78l-24 -112h233l-33 -156h-424z" />
    <glyph glyph-name="uni023E" unicode="&#x23e;" horiz-adv-x="552" 
d="M-68 -33l250 353l49 236h-155l34 158h351l62 88h117l-62 -88h34l-35 -158h-111l-63 -89l-97 -467h-191l17 84l-82 -117h-118z" />
    <glyph glyph-name="uni023F" unicode="&#x23f;" horiz-adv-x="502" 
d="M263 -240q-31 0 -63.5 12.5t-61 45t-47.5 92.5q-13 38 -22 57.5t-25 34.5q-8 7 -15 10.5t-14 8.5v152q45 -25 83.5 -34.5t78.5 -9.5q11 0 27 2.5t27.5 9.5t11.5 22q0 11 -5 20t-21.5 21t-49.5 30q-52 28 -75.5 65t-23.5 89q0 78 55.5 126.5t171.5 48.5q54 0 99.5 -13
t87.5 -39l-59 -123q-28 18 -62.5 32t-63.5 14q-37 0 -37 -33q0 -14 15 -25t50 -28q110 -54 110 -156q0 -95 -61.5 -145.5t-165.5 -55.5q10 -8 18.5 -21t14.5 -27q11 -24 23 -37t38 -13q12 0 24 2.5t23 6.5v-129q-15 -5 -36 -9t-50 -4z" />
    <glyph glyph-name="uni0240" unicode="&#x240;" horiz-adv-x="485" 
d="M313 -240q-52 0 -86.5 17t-58.5 50.5t-46 84.5q-12 29 -25.5 48.5t-35.5 29.5t-62 10h-19l21 108l245 299h-170l33 146h396l-26 -118l-291 -345q27 -10 45.5 -30t39.5 -60q17 -33 28.5 -55t24 -33t34.5 -11q18 0 41 9l1 -136q-34 -14 -89 -14z" />
    <glyph glyph-name="uni0241" unicode="&#x241;" horiz-adv-x="506" 
d="M79 0l70 328q48 18 92 44.5t72 60t28 71.5q0 37 -17.5 51t-45.5 14t-66 -14t-76 -35l-56 138q55 31 109.5 49.5t127.5 18.5q74 0 121 -25t69.5 -67t22.5 -93q0 -95 -48.5 -169.5t-160.5 -128.5l-52 -243h-190z" />
    <glyph glyph-name="uni0242" unicode="&#x242;" horiz-adv-x="506" 
d="M78 0l36 166q48 18 92 44.5t72 60t28 71.5q0 37 -17.5 51t-45.5 14t-66 -14t-76 -35l-56 138q55 31 109 49.5t128 18.5t121 -25t69.5 -67t22.5 -93q0 -95 -48.5 -169.5t-160.5 -128.5l-18 -81h-190z" />
    <glyph glyph-name="uni0243" unicode="&#x243;" horiz-adv-x="634" 
d="M16 0l39 186h-74l19 88h74l93 440h238q115 0 165 -44t50 -112q0 -73 -37.5 -118t-107.5 -66v-4q43 -14 68.5 -49.5t25.5 -86.5q0 -84 -38.5 -135.5t-103.5 -75t-144 -23.5h-267zM288 430h45q61 0 83 27t22 67q0 54 -76 54h-41zM227 139h50q49 0 82 30.5t33 77.5
q0 31 -17 51.5t-64 20.5h-43l-10 -45h89l-19 -88h-90z" />
    <glyph glyph-name="uni0244" unicode="&#x244;" horiz-adv-x="701" 
d="M281 -10q-69 0 -118.5 28t-75.5 76t-26 106q0 32 6 63l12 55h-86l33 150h85l53 246h191l-52 -246h162l52 246h191l-52 -246h88l-33 -150h-87l-13 -59q-28 -131 -106 -200t-224 -69zM312 150q43 0 70 29t42 99l9 40h-162l-11 -50q-3 -14 -5 -28.5t-2 -27.5q0 -29 14 -45.5
t45 -16.5z" />
    <glyph glyph-name="uni0245" unicode="&#x245;" horiz-adv-x="617" 
d="M-57 0l353 714h213l52 -714h-187l-12 347q-2 46 -1 97.5t4 86.5q-9 -31 -22 -67.5t-28 -70.5l-170 -393h-202z" />
    <glyph glyph-name="uni0246" unicode="&#x246;" horiz-adv-x="562" 
d="M16 0l151 714h309l20 46h97l-20 -46h18l-32 -155h-53l-49 -112h63l-35 -155h-95l-58 -135h141l-33 -157h-176l-33 -75h-99l33 75h-149zM303 447h57l48 112h-82zM268 292l-22 -105l46 105h-24z" />
    <glyph glyph-name="uni0247" unicode="&#x247;" horiz-adv-x="579" 
d="M93 -208l79 211q-64 22 -97.5 75t-33.5 131q0 68 19.5 131.5t58.5 113.5t98.5 79.5t140.5 29.5q6 0 12 -0.5t11 -0.5l68 181h77l-73 -195q49 -17 76.5 -53.5t27.5 -85.5q0 -80 -54.5 -130t-172.5 -62l-33 -91h14q42 0 79.5 13t80.5 35v-134q-44 -22 -91.5 -36t-119.5 -14
h-14l-74 -198h-79zM231 309h19h19t18 1l50 134q-41 -14 -70 -54t-36 -81zM372 328q33 14 47 34t14 39q0 25 -20 38zM229 155l22 59h-37v-12q0 -28 15 -47z" />
    <glyph glyph-name="uni0248" unicode="&#x248;" horiz-adv-x="373" 
d="M-56 -225q-26 0 -53.5 4t-50.5 10v156q18 -5 38.5 -8.5t46.5 -3.5q46 0 75 25t45 99l49 227h-94l34 150h92l60 280h191l-60 -280h94l-34 -150h-92l-54 -251q-20 -94 -54.5 -150.5t-90.5 -82t-142 -25.5z" />
    <glyph glyph-name="uni0249" unicode="&#x249;" horiz-adv-x="325" 
d="M248 606q-40 0 -66.5 15.5t-26.5 53.5q0 49 29 75.5t81 26.5q37 0 65 -15.5t28 -53.5q0 -46 -27 -74t-83 -28zM-28 -240q-26 0 -55 4t-46 9v148q18 -6 30 -7.5t25 -1.5q30 0 53.5 16.5t31.5 55.5l50 236h-80l25 112h79l47 221h189l-47 -221h80l-26 -112h-78l-56 -266
q-10 -50 -35.5 -94.5t-71 -72t-115.5 -27.5z" />
    <glyph glyph-name="uni024A" unicode="&#x24a;" horiz-adv-x="761" 
d="M585 -240q-93 0 -135.5 39t-42.5 108q0 12 2.5 29t4.5 29l6 30q7 36 20 75h-5q-30 -44 -68.5 -63.5t-88.5 -19.5q-100 0 -162.5 70.5t-62.5 206.5q0 107 28.5 192t78 145t112.5 92t132 32q68 0 106 -24.5t58 -53.5h4l29 67h165l-153 -717q-4 -17 -7 -33t-3 -27
q0 -35 35 -35q21 0 38.5 4t25.5 6v-136q-14 -4 -47 -10t-70 -6zM345 145q55 0 90 44.5t55 138.5l14 65q4 21 6.5 42t2.5 35q0 22 -7 45t-26.5 39.5t-54.5 16.5q-42 0 -75 -28t-56.5 -72t-35.5 -93t-12 -91q1 -76 27.5 -109t71.5 -33z" />
    <glyph glyph-name="uni024B" unicode="&#x24b;" horiz-adv-x="607" 
d="M451 -240q-86 0 -130 39t-44 99q0 11 1.5 23t3.5 25l6 32q6 31 13 47t13 29h-4q-20 -26 -47 -45t-74 -19q-37 0 -70.5 21t-55.5 66.5t-22 121.5q0 41 9.5 90t28.5 97t48 88.5t69 64.5t90 24q47 0 74.5 -18.5t54.5 -59.5h4l26 68h151l-120 -566q-4 -17 -6.5 -30t-2.5 -22
q0 -29 38 -29q11 0 21.5 1.5t26.5 6.5v-140q-20 -7 -48.5 -10.5t-53.5 -3.5zM276 142q22 0 39.5 19.5t30 50t19 65t6.5 64.5q0 31 -9.5 50.5t-29.5 19.5q-26 0 -48.5 -30t-36 -75.5t-13.5 -93.5q0 -70 42 -70z" />
    <glyph glyph-name="uni024C" unicode="&#x24c;" horiz-adv-x="650" 
d="M16 0l55 260h-73l32 145h72l65 309h189q123 0 188.5 -49t65.5 -147q0 -66 -21.5 -109.5t-53.5 -70t-63 -39.5l129 -299h-208l-95 260h-36l-55 -260h-191zM293 405h25q38 0 69.5 23t31.5 78q0 26 -14.5 44t-51.5 18h-26z" />
    <glyph glyph-name="uni024D" unicode="&#x24d;" horiz-adv-x="437" 
d="M11 0l44 207h-78l24 112h77l50 234h151l-9 -92h4q34 59 72 80.5t94 21.5q10 0 22 -1.5t17 -2.5l-41 -187q-10 4 -26 7.5t-34 3.5q-32 0 -57 -14.5t-43 -49.5h83l-23 -112h-94l-44 -207h-189z" />
    <glyph glyph-name="uni024E" unicode="&#x24e;" horiz-adv-x="604" 
d="M137 0l59 277l-67 253h-94l24 108h41l-20 76h197l13 -76h139l44 76h213l-52 -76h50l-24 -108h-100l-173 -253l-59 -277h-191zM321 449l47 81h-60z" />
    <glyph glyph-name="uni024F" unicode="&#x24f;" horiz-adv-x="544" 
d="M12 -240q-28 0 -46 2.5t-29 5.5v150q9 -2 23 -4t30 -2q44 0 70.5 18t47.5 56l11 20l-41 282h-80l25 112h39l-22 153h190l11 -153h90l66 153h203l-80 -153h50l-23 -112h-86l-188 -358q-45 -86 -106 -128t-155 -42zM250 206h4q6 19 14 41.5t15 40.5h-33q1 -22 1 -42.5
t-1 -39.5z" />
    <glyph glyph-name="uni0250" unicode="&#x250;" horiz-adv-x="600" 
d="M255 -10q-95 0 -147.5 39t-52.5 128q0 13 3.5 39.5t6.5 41.5l67 314h130l13 -73h3q28 29 53 48t53 28t67 9q71 0 103 -43t32 -106q0 -103 -68 -154.5t-188 -55.5l-82 -3l-2 -10q-3 -16 -3 -28q0 -21 13.5 -31.5t36.5 -10.5q41 0 78.5 11t87.5 28l40 -119
q-40 -18 -76.5 -29.5t-76.5 -17t-91 -5.5zM268 305l32 2q32 2 52 16t28.5 32.5t8.5 32.5q0 19 -11.5 30.5t-27.5 11.5q-28 0 -47 -23.5t-26 -58.5z" />
    <glyph glyph-name="uni0251" unicode="&#x251;" horiz-adv-x="607" 
d="M198 -10q-42 0 -78 20t-57.5 66t-21.5 125q0 40 9.5 89t28.5 97t48.5 88t69.5 64t90 24q47 0 77.5 -21.5t50.5 -56.5h4l26 68h151l-117 -553h-151l5 60h-4q-22 -31 -52 -50.5t-79 -19.5zM276 142q22 0 39.5 19.5t30.5 51t19 67.5q6 30 6 61t-10 50.5t-30 19.5
q-26 0 -48 -30t-35.5 -75.5t-13.5 -93.5q0 -70 42 -70z" />
    <glyph glyph-name="uni0252" unicode="&#x252;" horiz-adv-x="607" 
d="M409 563q42 0 78 -20t57.5 -66t21.5 -125q0 -40 -9.5 -89t-28.5 -97t-48.5 -88t-69.5 -64t-90 -24q-47 0 -77.5 21.5t-50.5 56.5h-4l-26 -68h-151l117 553h151l-5 -60h4q22 31 52 50.5t79 19.5zM331 411q-22 0 -39.5 -19.5t-30.5 -51t-19 -67.5q-6 -30 -6 -61t10 -50.5
t30 -19.5q26 0 48 30t35.5 75.5t13.5 93.5q0 70 -42 70z" />
    <glyph glyph-name="uni0253" unicode="&#x253;" horiz-adv-x="607" 
d="M321 -10q-42 0 -72.5 16.5t-59.5 54.5h-4l-24 -61h-150l130 614q17 77 71.5 115.5t131.5 38.5q33 0 55 -6t32 -10v-137q-7 2 -19 6t-29 4q-26 0 -41.5 -12t-22.5 -40l-2 -7q-5 -16 -10 -30.5t-14 -35.5h4q19 24 42 43.5t70 19.5q43 0 78.5 -20t57 -66.5t21.5 -124.5
q0 -40 -9.5 -89t-28.5 -97t-48 -88t-69 -64t-90 -24zM275 142q26 0 48.5 30t36 76t13.5 93q0 70 -42 70q-22 0 -39.5 -19t-29.5 -49.5t-18.5 -65t-6.5 -65.5q0 -32 9.5 -51t28.5 -19z" />
    <glyph glyph-name="uni0254" unicode="&#x254;" horiz-adv-x="504" 
d="M167 -10q-52 0 -94.5 10t-84.5 29l60 140q25 -11 54 -20t56 -9q29 0 51 18.5t36 47t21 60.5t7 59q0 49 -16.5 67.5t-44.5 18.5q-35 0 -68 -11.5t-70 -30.5v150q39 21 82 32.5t101 11.5q56 0 103 -23t75 -72.5t28 -130.5q0 -97 -36.5 -176t-103 -125t-156.5 -46z" />
    <glyph glyph-name="uni0255" unicode="&#x255;" horiz-adv-x="504" 
d="M71 -55l-69 40q17 26 33 50t36 50q-13 23 -21.5 59t-8.5 70q0 103 37 181.5t103.5 122.5t155.5 44q58 0 99.5 -10t79.5 -28l-60 -140q-31 13 -54.5 21t-56.5 8q-43 0 -75 -34t-43 -100q-1 -5 -1.5 -10t-1.5 -10q28 20 62 32.5t79 12.5q64 0 100 -34.5t36 -90.5
q0 -67 -33.5 -108.5t-86.5 -61t-110 -19.5q-49 0 -87 12t-59 26q-17 -23 -27 -40.5t-27 -42.5zM307 119q31 0 55 13.5t24 40.5q0 13 -10.5 23t-35.5 10q-40 0 -68.5 -16t-40.5 -25q17 -46 76 -46z" />
    <glyph glyph-name="uni0256" unicode="&#x256;" horiz-adv-x="604" 
d="M451 -240q-83 0 -127 35t-44 99q0 16 2.5 34t6.5 34l4 18q4 15 10 37t10 31h-4q-17 -24 -42 -41t-69 -17q-42 0 -78 20t-57.5 66t-21.5 125q0 40 9.5 89t28.5 97t48 88t69 64t90 24q45 0 69.5 -20t46.5 -54h4q0 6 1 27t4 47.5t8 49.5l30 147h191l-157 -742
q-4 -18 -9 -39.5t-5 -37.5q0 -17 8.5 -26t29.5 -9q11 0 20.5 1.5t25.5 6.5v-140q-20 -7 -48.5 -10.5t-53.5 -3.5zM276 142q22 0 39.5 19.5t30 50t19 65t6.5 64.5q0 31 -9.5 50.5t-29.5 19.5q-26 0 -48.5 -30t-36 -75.5t-13.5 -93.5q0 -70 42 -70z" />
    </font>
</defs>
</svg>
