<svg xmlns="http://www.w3.org/2000/svg"><metadata/><defs><font id="novecento_sans_widenormal" horiz-adv-x="668"><font-face ascent="821" descent="-179" units-per-em="1000"/><glyph horiz-adv-x="1000"/><glyph horiz-adv-x="1000"/><glyph horiz-adv-x="1000"/><glyph horiz-adv-x="250"/><glyph horiz-adv-x="250"/><glyph horiz-adv-x="250"/><glyph d="M172 700v-538h-82v538h82zM131 -10q-25 0 -39.5 14.5t-14.5 36.5t14.5 36t39.5 14t39.5 -14t14.5 -36t-14.5 -36.5t-39.5 -14.5z" horiz-adv-x="262" unicode="!"/><glyph d="M126 700l-4 -230h-68l-5 230h77zM270 700l-5 -230h-68l-5 230h78z" horiz-adv-x="321" unicode="&quot;"/><glyph d="M452 179h95l-19 -72h-96l-28 -107h-69l28 107h-160l-29 -107h-69l29 107h-96l20 72h96l55 204h-95l20 71h94l28 106h69l-29 -106h161l29 106h69l-29 -106h97l-20 -71h-96zM277 383l-55 -204h161l55 204h-161z" horiz-adv-x="661" unicode="#"/><glyph d="M439 150q0 -70 -44.5 -111.5t-120.5 -48.5v-80h-65v80q-151 16 -174 149l71 19q6 -49 43 -78.5t96 -29.5q53 0 84.5 25.5t31.5 71.5q0 14 -2.5 26t-9.5 21.5t-12 16.5t-18.5 13.5t-20 10.5t-24 9t-24 6.5t-27.5 6.5t-26 6q-31 7 -52.5 15.5t-47 25t-38.5 45t-13 67.5 q0 65 40.5 105t113.5 48v81h66v-80q138 -14 168 -135l-70 -19q-20 93 -128 93q-56 0 -86 -24.5t-30 -64.5q0 -25 9.5 -42.5t30.5 -29t41 -17.5t56 -14q31 -7 49 -12t46.5 -18t45 -29t29 -44t12.5 -64z" horiz-adv-x="474" unicode="$"/><glyph d="M163 219q-128 0 -128 175q0 176 128 176t128 -176q0 -175 -128 -175zM477 560l-188 -560h-56l188 560h56zM163 274q36 0 54 28t18 92t-18 92.5t-54 28.5q-73 0 -73 -121q0 -120 73 -120zM549 -7q-128 0 -128 176q0 177 128 177t128 -177q0 -176 -128 -176zM549 49 q36 0 54 28t18 92t-18 92.5t-54 28.5q-37 0 -55 -28.5t-18 -92.5t18 -92t55 -28z" horiz-adv-x="711" unicode="%"/><glyph d="M495 253v-71q0 -95 -57.5 -144.5t-166.5 -49.5q-106 0 -161.5 44.5t-55.5 118.5q0 57 32 93.5t80 45.5v2q-43 9 -74.5 42.5t-31.5 90.5q0 71 51 108.5t145 37.5q193 0 236 -148l-72 -20q-29 102 -157 102q-123 0 -123 -86q0 -42 32.5 -68.5t94.5 -26.5h317v-70zM417 254 h-153q-60 0 -95.5 -25.5t-35.5 -74.5q0 -48 35 -74.5t104 -26.5q145 0 145 130v71z" horiz-adv-x="612" unicode="&amp;"/><glyph d="M126 700l-4 -230h-68l-5 230h77z" horiz-adv-x="178" unicode="'"/><glyph d="M316 795l23 -74q-204 -70 -204 -430t204 -430l-23 -75q-260 92 -260 505q0 412 260 504z" horiz-adv-x="356" unicode="("/><glyph d="M41 -213l-24 74q204 70 204 430t-204 430l24 75q259 -92 259 -505q0 -412 -259 -504z" horiz-adv-x="356" unicode=")"/><glyph d="M290 518l76 -106l-46 -33l-75 107l-75 -107l-47 33l76 106l-122 38l17 53l122 -38v129h57v-129l122 38l18 -53z" horiz-adv-x="489" unicode="*"/><glyph d="M524 254h-153v-165h-74v165h-153v69h153v164h74v-164h153v-69z" unicode="+"/><glyph d="M108 0q-21 -3 -33.5 8.5t-12.5 32.5q0 20 14.5 33.5t37.5 13.5q27 0 42.5 -17t15.5 -48q0 -37 -24.5 -74t-65.5 -52l-33 35q22 8 38.5 28.5t20.5 39.5z" horiz-adv-x="224" unicode=","/><glyph d="M480 254h-380v69h380v-69z" horiz-adv-x="581" unicode="-"/><glyph d="M112 -10q-26 0 -40 14.5t-14 36.5t14.5 36t39.5 14t39.5 -14t14.5 -36t-14.5 -36.5t-39.5 -14.5z" horiz-adv-x="224" unicode="."/><glyph d="M462 700l-353 -700h-86l355 700h84z" horiz-adv-x="485" unicode="/"/><glyph d="M260 571q107 0 165 -75t58 -216t-58 -216.5t-165 -75.5t-165 75.5t-58 216.5t58 216t165 75zM260 499q-145 0 -145 -219q0 -220 145 -220t145 220q0 219 -145 219z" horiz-adv-x="521" unicode="0"/><glyph d="M184 0v374q0 18 1 43t1 39l1 15h-2l-8 -9q-8 -9 -18 -20.5t-15 -15.5l-57 -58l-47 55l148 137h74v-560h-78z" horiz-adv-x="342" unicode="1"/><glyph d="M49 0v85l203 156q60 48 86 82t26 73q0 46 -32 77t-92 31q-58 0 -88.5 -28.5t-34.5 -72.5l-73 20q11 76 66.5 112t135.5 36q94 0 145.5 -47t51.5 -126q0 -61 -33 -104t-111 -100l-160 -123l1 -2q1 0 12.5 0.5t30.5 0.5h40h223v-70h-397z" horiz-adv-x="490" unicode="2"/><glyph d="M335 294v-3q51 -6 84 -41.5t33 -94.5q0 -75 -55.5 -121t-145.5 -46q-86 0 -143.5 43.5t-70.5 117.5l69 19q10 -53 48 -82.5t96 -29.5q60 0 92.5 31t32.5 78q0 48 -34 72.5t-93 24.5h-56v59h54q59 0 91 23.5t32 68.5q0 44 -31.5 68.5t-88.5 24.5q-117 0 -129 -102l-71 19 q13 77 69 112.5t138 35.5q94 0 142 -39.5t48 -105.5q0 -56 -32.5 -90.5t-78.5 -41.5z" horiz-adv-x="489" unicode="3"/><glyph d="M398 0h-78v146h-286v71l249 343h115v-347h82v-67h-82v-146zM320 367v129h-3l-210 -281l2 -2h92h119v154z" horiz-adv-x="525" unicode="4"/><glyph d="M135 316l2 -1q16 18 50 33.5t78 15.5q88 0 141 -51t53 -134q0 -86 -57 -138.5t-149 -52.5q-81 0 -137.5 42t-71.5 112l68 17q10 -49 47.5 -76.5t91.5 -27.5q59 0 96 33.5t37 90.5q0 58 -37 91.5t-100 33.5q-48 0 -79 -19t-43 -45l-63 18l51 302h309v-73h-256l-16 -93 q-3 -20 -7 -39l-6 -28.5t-2 -10.5z" horiz-adv-x="503" unicode="5"/><glyph d="M149 316l3 -2q41 48 118 48q83 0 137 -50.5t54 -130.5q0 -85 -59 -139t-154 -54q-94 0 -153 53.5t-59 146.5q0 92 78 193l139 179h85zM249 56q62 0 99.5 34.5t38.5 92.5q0 56 -37 89.5t-101 33.5q-63 0 -99.5 -33.5t-36.5 -89.5q0 -58 37 -92.5t99 -34.5z" horiz-adv-x="499" unicode="6"/><glyph d="M447 502l-283 -502h-81l225 401q11 20 24.5 41t20.5 32l7 12l-2 2q-35 -1 -73 -1h-255v73h417v-58z" horiz-adv-x="470" unicode="7"/><glyph d="M37 151q0 62 39 98.5t92 43.5v3q-33 4 -69 37.5t-36 89.5q0 63 50.5 105.5t137.5 42.5q86 0 137 -42.5t51 -104.5q0 -57 -36 -90.5t-68 -37.5v-3q52 -7 91 -43.5t39 -98.5q0 -72 -57 -117.5t-156 -45.5t-157 45t-58 118zM131 419q0 -44 34 -68.5t86 -24.5q54 1 86.5 27 t32.5 67q0 42 -32.5 68t-86.5 26q-56 0 -88 -26.5t-32 -68.5zM112 156q0 -50 38 -78.5t101 -28.5q64 0 101.5 28.5t37.5 78.5q0 49 -37.5 75.5t-101.5 26.5t-101.5 -27t-37.5 -75z" horiz-adv-x="502" unicode="8"/><glyph d="M355 239l-2 2q-45 -48 -121 -48q-86 0 -139 52t-53 132q0 86 60 140t154 54q92 0 153.5 -53t61.5 -146q0 -63 -28 -116t-87 -121l-117 -135h-88zM253 503q-60 0 -99.5 -32t-39.5 -96q0 -63 39.5 -94t99.5 -31q61 0 100 32t39 94q0 63 -39.5 95t-99.5 32z" horiz-adv-x="507" unicode="9"/><glyph d="M112 338q-26 0 -40 14.5t-14 36.5t14.5 36t39.5 14t39.5 -14.5t14.5 -35.5q0 -23 -14 -37t-40 -14zM112 -10q-26 0 -40 14.5t-14 36.5t14.5 36t39.5 14t39.5 -14t14.5 -36t-14.5 -36.5t-39.5 -14.5z" horiz-adv-x="224" unicode=":"/><glyph d="M112 338q-26 0 -40 14.5t-14 36.5t14.5 36t39.5 14t39.5 -14.5t14.5 -35.5q0 -23 -14 -37t-40 -14zM108 1q-21 -3 -33.5 8.5t-12.5 31.5q0 21 14 34t38 13q27 0 42.5 -17t15.5 -47q0 -37 -24.5 -74.5t-65.5 -51.5l-33 34q22 8 38.5 28.5t20.5 40.5z" horiz-adv-x="224" unicode=";"/><glyph d="M542 41l-451 217v62l451 217v-73l-362 -174v-2l362 -174v-73z" unicode="&lt;"/><glyph d="M524 347h-380v69h380v-69zM524 164h-380v69h380v-69z" unicode="="/><glyph d="M488 288v2l-362 174v73l451 -217v-62l-451 -217v73z" unicode="&gt;"/><glyph d="M229 162v177q119 41 166 79.5t47 91.5q0 52 -36 89t-117 37q-75 0 -115.5 -32.5t-58.5 -94.5l-77 21q22 88 88.5 136t166.5 48q113 0 172.5 -56.5t59.5 -137.5q0 -84 -58.5 -135t-154.5 -86v-137h-83zM270 -10q-26 0 -40.5 14.5t-14.5 36.5t14.5 36t40.5 14 q25 0 39.5 -14t14.5 -36t-14.5 -36.5t-39.5 -14.5z" horiz-adv-x="563" unicode="?"/><glyph d="M494 142h-2q-15 -34 -48 -54.5t-77 -20.5q-69 0 -116.5 48.5t-47.5 134.5t44 137t117 51q84 0 113 -59h3v-117q0 50 -27.5 80t-73.5 30q-48 0 -73.5 -33t-25.5 -88t27 -86t72 -31q46 0 71.5 30t29.5 78v182h77v-207q0 -45 12.5 -66.5t41.5 -21.5q37 0 57 37.5t20 102.5 q0 136 -80.5 220t-212.5 84q-133 0 -214.5 -86t-81.5 -224q0 -148 77 -228.5t202 -80.5q29 0 55 3.5t46 9t36 12t28.5 14t20 13t14 11.5t7.5 6l46 -36q-38 -39 -109.5 -64t-141.5 -25q-154 0 -248 97t-94 269q0 157 100.5 261t255.5 104q158 0 256.5 -102.5t98.5 -258.5 q0 -91 -38 -146t-109 -55q-40 0 -70 21.5t-38 53.5z" horiz-adv-x="787" unicode="@"/><glyph d="M543 186h-355l-78 -186h-87l298 700h89l298 -700h-87zM512 260l-77 183q-10 24 -28.5 68t-29.5 70l-11 26h-2q-1 -1 -68 -163l-77 -184h293z" horiz-adv-x="732" unicode="A"/><glyph d="M428 377v-3q61 -10 110 -54.5t49 -124.5q0 -90 -62.5 -142.5t-176.5 -52.5h-271v700h252q94 0 151.5 -48.5t57.5 -123.5q0 -63 -33 -102t-77 -49zM158 400h163q60 0 97.5 30.5t37.5 85.5q0 52 -38 83t-105 31h-155v-230zM158 70h186q73 0 115.5 33t42.5 96 q0 64 -46 100.5t-114 36.5h-184v-266z" horiz-adv-x="623" unicode="B"/><glyph d="M646 218l79 -21q-40 -98 -127.5 -154t-199.5 -56q-156 0 -258 101t-102 264t102 262.5t258 99.5q116 0 199.5 -54t118.5 -137l-79 -22q-12 22 -29 42t-45.5 43t-72 37t-94.5 14q-123 0 -199.5 -77.5t-76.5 -208.5q0 -130 78 -208t196 -78q85 0 152 41t100 112z" horiz-adv-x="769" unicode="C"/><glyph d="M77 700h242q165 0 268.5 -96.5t103.5 -256.5q0 -159 -102.5 -253t-262.5 -94h-249v700zM158 76h164q124 0 205.5 70t81.5 201t-82.5 204t-210.5 73h-158v-548z" horiz-adv-x="729" unicode="D"/><glyph d="M77 0v700h471v-76h-390v-220h304v-76h-304v-252h392v-76h-473z" horiz-adv-x="600" unicode="E"/><glyph d="M544 624h-386v-234h307v-76h-307v-314h-81v700h467v-76z" horiz-adv-x="583" unicode="F"/><glyph d="M730 0h-73q0 35 0.5 58t0.5 32v11h-2q-37 -42 -102.5 -78t-156.5 -36q-152 0 -255.5 101t-103.5 263q0 163 102.5 263t259.5 100q115 0 199 -54t119 -137l-80 -22q-11 21 -27 40.5t-44 43t-72 38t-97 14.5q-123 0 -200.5 -77.5t-77.5 -207.5q0 -131 79.5 -209t202.5 -78 q90 0 158.5 39.5t93.5 85.5v100h-208v76h284v-366z" horiz-adv-x="790" unicode="G"/><glyph d="M544 0v327h-386v-327h-81v700h81v-295h386v295h82v-700h-82z" horiz-adv-x="702" unicode="H"/><glyph d="M77 0v700h81v-700h-81z" horiz-adv-x="235" unicode="I"/><glyph d="M416 700v-420q0 -142 -61 -217.5t-179 -75.5q-110 0 -176 80l46 64q51 -66 130 -66q82 0 120 54.5t38 164.5v416h82z" horiz-adv-x="488" unicode="J"/><glyph d="M282 362l-124 -129v-233h-81v700h81v-218v-151h2l114 121l233 248h98l-263 -280l290 -421l-96 1z" horiz-adv-x="649" unicode="K"/><glyph d="M77 0v700h81v-624h369v-76h-450z" horiz-adv-x="564" unicode="L"/><glyph d="M644 0v315v48t0.5 49.5l1 47t0.5 42.5t0.5 34t0.5 24v8h-2l-9 -18l-31.5 -59.5t-50.5 -91.5l-128 -227h-49l-127 224q-29 51 -51.5 94t-31.5 60l-9 18h-2v-8q0 -9 0.5 -24t0.5 -34v-42.5t0.5 -47t0.5 -49.5v-48v-315h-81v700h86l238 -426h2l239 426h84v-700h-82z" horiz-adv-x="802" unicode="M"/><glyph d="M568 0l-410 569h-2v-5q0 -5 0.5 -13.5t0.5 -20.5v-27t0.5 -31t0.5 -34.5v-36.5v-401h-81v700h82l410 -564h2v5q0 5 -0.5 14t-0.5 20.5v26.5t-0.5 30.5t-0.5 33v34.5v400h82v-700h-83z" horiz-adv-x="727" unicode="N"/><glyph d="M38 351q0 161 103.5 262t259.5 101q155 0 259 -101.5t104 -261.5q0 -161 -104 -262.5t-259 -101.5q-156 0 -259.5 101.5t-103.5 262.5zM120 351q0 -131 79.5 -208.5t201.5 -77.5q121 0 201 78t80 208t-80 208t-201 78t-201 -78t-80 -208z" horiz-adv-x="802" unicode="O"/><glyph d="M77 700h212q124 0 192.5 -56t68.5 -162q0 -104 -69 -160.5t-192 -56.5h-131v-265h-81v700zM158 337h133q87 0 132 37t45 107q0 144 -177 144h-133v-288z" horiz-adv-x="576" unicode="P"/><glyph d="M764 351q0 -150 -90.5 -248.5t-231.5 -113.5v-124h-83v124q-141 15 -231 113.5t-90 248.5q0 161 103.5 262t259.5 101q155 0 259 -101.5t104 -261.5zM401 65q121 0 201 78t80 208t-80 208t-201 78t-201 -78t-80 -208q0 -131 79.5 -208.5t201.5 -77.5z" horiz-adv-x="802" unicode="Q"/><glyph d="M467 0l-159 275q-15 -1 -64 -1h-86v-274h-81v700h214q123 0 192 -57.5t69 -160.5q0 -79 -42 -127.5t-118 -64.5l173 -290h-98zM158 342h141q170 0 170 137q0 73 -45.5 109.5t-129.5 36.5h-136v-283z" horiz-adv-x="602" unicode="R"/><glyph d="M35 184l78 21q6 -72 60 -108.5t138 -36.5q78 0 121 31.5t43 93.5q0 21 -5.5 38.5t-13.5 29.5t-22.5 22t-27 16t-32.5 12t-33 8.5t-35.5 7t-33.5 6.5q-36 8 -60 15.5t-56.5 23t-52 35t-34 51.5t-14.5 73q0 91 63 141t174 50q101 0 167.5 -43t88.5 -131l-78 -21 q-30 122 -179 122q-75 0 -114 -30.5t-39 -84.5q0 -27 11 -47.5t25.5 -33.5t43 -23.5t49.5 -15.5t59 -13q38 -7 64.5 -14t61 -23t55.5 -36.5t36 -55t15 -78.5q0 -98 -64.5 -148.5t-183.5 -50.5q-48 0 -90 9t-82.5 30t-67.5 61t-35 97z" horiz-adv-x="593" unicode="S"/><glyph d="M600 624h-241v-624h-82v624h-240v76h563v-76z" horiz-adv-x="637" unicode="T"/><glyph d="M628 700v-408q0 -148 -72 -226.5t-208 -78.5t-208 78t-72 227v408h83v-408q0 -115 48 -171t149 -56t150 56t49 171v408h81z" horiz-adv-x="696" unicode="U"/><glyph d="M392 0h-97l-278 700h91l143 -367q84 -216 93 -242h2q13 40 91 237l145 372h88z" horiz-adv-x="686" unicode="V"/><glyph d="M644 0l-100 316q-14 44 -28 92.5t-22 73.5l-7 25h-2l-7 -25q-7 -25 -21.5 -75.5t-28.5 -97.5l-96 -309h-88l-226 700h90l104 -333q78 -249 80 -253h2q1 1 66 221l83 271h95l82 -272q10 -33 27 -90.5t28 -93t11 -36.5h2q0 1 11.5 36.5t32 102.5t33.5 108l109 339h81 l-225 -700h-86z" horiz-adv-x="973" unicode="W"/><glyph d="M558 0l-129 176q-26 35 -49.5 67.5t-31.5 44.5l-9 11h-1q-1 0 -93 -125l-126 -174h-99l271 364l-249 336h99l123 -168q80 -109 81 -109h1l8 11q7 10 27 38.5t42 59.5l119 168h97l-247 -337l268 -363h-102z" horiz-adv-x="680" unicode="X"/><glyph d="M369 304v-304h-82v304l-270 396h94l157 -230q16 -22 31.5 -45t22.5 -35l8 -11h2l7 11q7 11 22 33.5t31 44.5l159 232h89z" horiz-adv-x="657" unicode="Y"/><glyph d="M612 622l-384 -453q-26 -31 -46.5 -54t-27.5 -31l-8 -7l2 -2h4q5 0 12.5 0.5t18 0.5h24.5h28h377v-76h-570v75l392 462q22 26 41.5 47t27.5 30l8 8l-1 3h-4q-4 0 -11.5 -0.5t-17 -0.5h-23.5h-29h-373v76h560v-78z" horiz-adv-x="654" unicode="Z"/><glyph d="M324 -136v-74h-230v1008h230v-74h-150v-860h150z" horiz-adv-x="364" unicode="["/><glyph d="M462 0h-86l-353 700h85z" horiz-adv-x="485" unicode="\"/><glyph d="M40 726v74h230v-1008h-230v74h150v860h-150z" horiz-adv-x="364" unicode="]"/><glyph d="M334 637l-209 -272l-61 40l233 300h74l232 -300l-60 -40z" unicode="^"/><glyph d="M652 -64h-575v64h575v-64z" horiz-adv-x="729" unicode="_"/><glyph d="M248 915l104 -161h-76l-95 139z" horiz-adv-x="533" unicode="`"/><glyph d="M432 150h-270l-58 -150h-81l229 560h92l229 -560h-82zM405 218l-49 125q-57 143 -57 150h-3q0 -4 -60 -157l-47 -118h216z" horiz-adv-x="596" unicode="a"/><glyph d="M378 299v-3q51 -9 89 -44t38 -95q0 -69 -51.5 -113t-142.5 -44h-234v560h223q74 0 121.5 -41t47.5 -99q0 -95 -91 -121zM155 322h130q43 0 74.5 23t31.5 65q0 36 -28.5 60t-76.5 24h-131v-172zM155 66h154q51 0 83.5 25.5t32.5 69.5q0 45 -34 71.5t-86 26.5h-150v-193z" horiz-adv-x="542" unicode="b"/><glyph d="M526 172l75 -20q-36 -75 -106 -119.5t-160 -44.5q-128 0 -212.5 82.5t-84.5 209.5q0 125 84.5 208t211.5 83q88 0 158.5 -42t104.5 -123l-74 -20q-66 113 -188 113q-95 0 -156.5 -61.5t-61.5 -157.5q0 -97 61.5 -158.5t155.5 -61.5q66 0 115.5 31t76.5 81z" horiz-adv-x="645" unicode="c"/><glyph d="M77 560h193q138 0 224 -76.5t86 -205.5t-85 -203.5t-220 -74.5h-198v560zM155 73h118q103 0 165.5 52.5t62.5 152.5t-63 154.5t-169 54.5h-114v-414z" horiz-adv-x="618" unicode="d"/><glyph d="M77 0v560h393v-73h-315v-162h243v-71h-243v-181h320v-73h-398z" horiz-adv-x="525" unicode="e"/><glyph d="M460 487h-305v-182h227v-73h-227v-232h-78v560h383v-73z" horiz-adv-x="498" unicode="f"/><glyph d="M612 0h-70v33v23.5t0.5 14t0.5 8v3.5h-2q-79 -94 -209 -94q-126 0 -210 83t-84 209t84 208.5t211 82.5q85 0 157.5 -40.5t107.5 -124.5l-72 -19q-22 46 -71.5 79.5t-119.5 33.5q-96 0 -157 -61t-61 -160q0 -97 62.5 -158t163.5 -61q66 0 121.5 28.5t76.5 62.5v71h-170v70 h241v-292z" horiz-adv-x="672" unicode="g"/><glyph d="M540 0h-78v252h-307v-252h-78v560h78v-235h307v235h78v-560z" horiz-adv-x="616" unicode="h"/><glyph d="M77 0v560h78v-560h-78z" horiz-adv-x="232" unicode="i"/><glyph d="M352 560v-334q0 -115 -52 -176.5t-151 -61.5q-94 0 -149 62l43 57q41 -47 105 -47q66 0 96 42t30 127v331h78z" horiz-adv-x="424" unicode="j"/><glyph d="M463 0l-203 285l-105 -108v-177h-78v560h78v-159v-32v-28.5t-0.5 -24t-0.5 -19.5v-14v-9v-4h2q29 31 76 79l204 211h99l-217 -223l235 -337h-90z" horiz-adv-x="570" unicode="k"/><glyph d="M77 0v560h78v-487h292v-73h-370z" horiz-adv-x="483" unicode="l"/><glyph d="M546 0v284l1 162h-2l-169 -310h-53l-170 314h-2v-12q0 -12 0.5 -30.5t1 -39.5t0.5 -43v-37v-288h-76v560h95l118 -212q18 -32 34 -62t22 -43l7 -13h2q1 0 7.5 12.5t23 44t33.5 62.5l116 211h89v-560h-78z" horiz-adv-x="701" unicode="m"/><glyph d="M553 0h-80l-318 441h-2v-4q0 -4 0.5 -10.5t0.5 -15v-20t0.5 -24t0.5 -26.5v-28v-313h-78v560h80l317 -434h2v4v9.5v14.5t-0.5 19t-0.5 22.5v24.5v26v314h78v-560z" horiz-adv-x="630" unicode="n"/><glyph d="M38 279q0 127 84.5 209.5t209.5 82.5t209.5 -82.5t84.5 -209.5q0 -125 -84.5 -208t-209.5 -83t-209.5 83t-84.5 208zM117 279q0 -96 61.5 -157.5t153.5 -61.5t153.5 61.5t61.5 157.5q0 97 -61 158.5t-154 61.5t-154 -61.5t-61 -158.5z" horiz-adv-x="665" unicode="o"/><glyph d="M77 560h182q104 0 161 -47t57 -128q0 -82 -56.5 -128t-161.5 -46h-104v-211h-78v560zM155 277h107q66 0 101 28t35 78t-34.5 78.5t-101.5 28.5h-107v-213z" horiz-adv-x="504" unicode="p"/><glyph d="M626 279q0 -115 -72 -195t-184 -93v-107h-78v107q-111 14 -182.5 93.5t-71.5 194.5q0 127 84.5 209.5t209.5 82.5t209.5 -82.5t84.5 -209.5zM332 60q92 0 153.5 61.5t61.5 157.5q0 97 -61 158.5t-154 61.5t-154 -61.5t-61 -158.5q0 -96 61.5 -157.5t153.5 -61.5z" horiz-adv-x="663" unicode="q"/><glyph d="M413 0l-134 222q-22 -1 -62 -1h-62v-221h-78v560h184q104 0 161.5 -44t57.5 -125q0 -62 -34 -102t-92 -53l144 -236h-85zM155 284h109q137 0 137 102q0 103 -137 103h-109v-205z" horiz-adv-x="535" unicode="r"/><glyph d="M35 139l71 19q6 -49 46.5 -78t106.5 -29q59 0 93 25t34 73q0 16 -4.5 29t-10 22.5t-18.5 17.5t-21.5 13t-28 10.5t-29.5 8t-34.5 7.5t-34.5 7q-33 7 -55 15t-48.5 24t-40.5 44.5t-14 67.5q0 76 52.5 116t147.5 40q180 0 213 -136l-69 -19q-25 92 -139 92 q-60 0 -92.5 -23.5t-32.5 -66.5q0 -46 35.5 -65.5t115.5 -34.5q30 -6 48 -10.5t47.5 -17.5t47 -29t31 -45t13.5 -66q0 -80 -55.5 -121t-150.5 -41q-37 0 -70 6.5t-66.5 22t-56.5 47t-31 75.5z" horiz-adv-x="500" unicode="s"/><glyph d="M506 487h-196v-487h-78v487h-195v73h469v-73z" horiz-adv-x="543" unicode="t"/><glyph d="M543 560v-319q0 -126 -61.5 -189.5t-176.5 -63.5t-176 63.5t-61 189.5v319h79v-327q0 -173 159 -173t159 173v327h78z" horiz-adv-x="611" unicode="u"/><glyph d="M346 0h-90l-239 560h86l117 -274q25 -59 45.5 -108.5t28.5 -69.5l9 -21h2l3 7q3 8 9.5 24.5t15.5 38t23.5 56t30.5 72.5l116 275h83z" horiz-adv-x="603" unicode="v"/><glyph d="M532 0l-70 218q-15 47 -28.5 91t-19.5 63l-6 20h-2l-6 -18q-6 -19 -21 -66t-29 -91l-69 -217h-79l-184 560h83l84 -259q18 -54 34 -105t23 -72l6 -22h1l7 20q6 21 20 66.5t28 89.5l66 211h81l65 -211q14 -44 27.5 -89.5t19.5 -66.5l6 -20h1l7 22q7 21 23 71.5t34 105.5 l84 259h77l-184 -560h-79z" horiz-adv-x="813" unicode="w"/><glyph d="M462 0l-100 130q-23 30 -43 56.5t-27 36.5l-8 10h-1q-1 0 -79 -104l-95 -129h-89l217 289l-200 271h93l81 -109q22 -29 43.5 -57.5t29.5 -39.5l8 -10h1l8 10q8 11 30.5 41.5t43.5 59.5l76 105h86l-201 -272l220 -288h-94z" horiz-adv-x="576" unicode="x"/><glyph d="M309 0h-78v231l-214 329h89l90 -137q20 -29 39 -58.5t29 -44.5l9 -15h2l9 15q10 14 30 44.5t39 59.5l89 136h82l-215 -329v-231z" horiz-adv-x="541" unicode="y"/><glyph d="M515 486l-268 -301q-37 -41 -63 -69t-34 -35l-7 -7l2 -2q30 1 76 1h294v-73h-473v74l280 310q31 35 55 60.5t31 33.5l7 7l-2 2h-71h-292v73h465v-74z" horiz-adv-x="557" unicode="z"/><glyph d="M223 567v-115q0 -36 -7 -64.5t-16.5 -45t-21.5 -28t-19 -15.5t-13 -6q5 -1 12.5 -5.5t19.5 -16.5t21.5 -29t16.5 -45.5t7 -63.5v-114q0 -91 37 -125.5t102 -34.5v-70q-101 0 -157.5 56t-56.5 170v118q0 117 -71 124v72q28 5 43 20q28 33 28 104v118q0 114 56.5 170 t157.5 56v-71q-65 0 -102 -34t-37 -125z" horiz-adv-x="403" unicode="{"/><glyph d="M60 775h67v-849h-67v849z" horiz-adv-x="187" unicode="|"/><glyph d="M180 19v115q0 44 10 77t25 49t25 23t18 10q-5 1 -13 5.5t-19.5 16.5t-21.5 28.5t-17 45t-7 63.5v115q0 91 -37 125t-102 34v71q101 0 157.5 -56.5t56.5 -170.5v-117q1 -118 72 -125v-71q-32 -5 -48 -26q-24 -34 -24 -99v-117q0 -114 -56.5 -170t-157.5 -56v71 q65 0 102 34t37 125z" horiz-adv-x="403" unicode="}"/><glyph d="M534 346l13 -67q-11 -15 -41 -30.5t-69 -15.5q-37 0 -100.5 21.5t-101.5 21.5q-56 0 -100 -46l-15 66q42 49 112 49q37 0 100 -21.5t101 -21.5q55 0 101 44z" unicode="~"/><glyph d="M131 710q26 0 40 -14.5t14 -36.5t-14.5 -36t-39.5 -14t-39.5 14t-14.5 36t14.5 36.5t39.5 14.5zM91 0v538h81v-538h-81z" horiz-adv-x="262" unicode="¡"/><glyph d="M299 90q116 0 165 101l72 -20q-27 -63 -81.5 -103t-122.5 -48v-104h-67v104q-99 11 -163 82.5t-64 179.5q0 107 62 177t164 81v104h68v-104q71 -7 126.5 -46t81.5 -112l-72 -20q-20 51 -62.5 81t-103.5 30q-85 0 -136 -52t-51 -139t51 -139.5t133 -52.5z" horiz-adv-x="584" unicode="¢"/><glyph d="M469 73v-73h-433v73q38 7 51 29.5t13 65.5q0 23 -4 75h-61v64h54q-8 72 -8 101q0 78 48 120.5t132 42.5q174 0 197 -157l-73 -20q-9 55 -38 81.5t-83 26.5q-107 0 -107 -110q0 -10 7 -85h199v-64h-191q5 -47 5 -74q0 -78 -40 -96l1 -2q8 2 171 2h160z" horiz-adv-x="510" unicode="£"/><glyph d="M596 516l-71 -71q61 -71 61 -166q0 -86 -55 -159l73 -73l-43 -43l-73 73q-74 -61 -166 -61q-93 0 -165 61l-73 -73l-43 43l73 74q-54 70 -54 158q0 96 60 167l-71 70l43 43l72 -71q70 55 158 55q89 0 160 -54l71 70zM322 469q-78 0 -133 -55t-55 -135t55 -134.5 t133 -54.5q80 0 135 54.5t55 134.5t-55 135t-135 55z" horiz-adv-x="645" unicode="¤"/><glyph d="M365 365h79v-60h-114l-29 -51h143v-61h-157v-193h-78v193h-155v61h142l-29 51h-113v60h78l-112 195h87l96 -175q38 -71 46 -79h2q8 8 46 79l96 175h84z" horiz-adv-x="498" unicode="¥"/><glyph d="M127 490h-67v285h67v-285zM127 -74h-67v285h67v-285z" horiz-adv-x="187" unicode="¦"/><glyph d="M487 252q89 -34 89 -118q0 -75 -60.5 -111t-168.5 -36q-46 0 -86 6.5t-79 21t-64.5 43.5t-31.5 70l77 20q9 -100 178 -100q152 0 152 89q0 43 -39 60t-147 35q-17 2 -26 4q-38 6 -65.5 13.5t-58.5 22t-47.5 38.5t-16.5 57q0 81 95 112q-85 32 -85 108q0 67 60 97t153 30 q211 0 244 -140l-69 -19q-28 101 -176 101q-131 0 -131 -68q0 -43 59 -62q28 -9 127 -26q42 -7 69.5 -13t57 -16.5t45.5 -23.5t26.5 -34t10.5 -48q0 -84 -92 -113zM168 377q0 -22 14 -38t39.5 -25.5t56 -16t70.5 -13.5q9 -1 14 -2q19 -2 48 -8q93 17 93 79q0 20 -10 35 t-24 24t-40 16.5t-45 10.5t-52 8l-21 3l-38 7q-105 -16 -105 -80z" unicode="§"/><glyph d="M171 776q-19 0 -32 13.5t-13 32.5q0 20 13.5 33.5t32.5 13.5t32.5 -14t13.5 -33t-14 -32.5t-33 -13.5zM361 776q-19 0 -33 13.5t-14 32.5q0 20 14 33.5t33 13.5t32.5 -14t13.5 -33t-13.5 -32.5t-32.5 -13.5z" horiz-adv-x="533" unicode="¨"/><glyph d="M401 629q153 0 258.5 -103t105.5 -261t-105.5 -261t-258.5 -103q-152 0 -257.5 103t-105.5 261t105.5 261t257.5 103zM401 582q-137 0 -225.5 -87.5t-88.5 -228.5t89 -229.5t225 -88.5q137 0 226.5 88t89.5 230q0 141 -89.5 228.5t-226.5 87.5zM519 196l54 -17 q-23 -48 -70 -76.5t-107 -28.5q-85 0 -139 53.5t-54 137.5q0 85 55 138t140 53q60 0 107 -29.5t65 -82.5l-53 -15q-7 24 -36 48.5t-81 24.5q-61 0 -99.5 -37t-38.5 -99q0 -61 37.5 -99t98.5 -38q82 0 121 67z" horiz-adv-x="804" unicode="©"/><glyph d="M90 235h-55l134 325h62l133 -325h-56l-31 78h-156zM200 507h-2l-4 -11l-13 -32.5t-17 -43.5l-26 -64h122l-26 64q-8 21 -17 43.5l-13 32.5zM365 167v-55h-330v55h330z" horiz-adv-x="400" unicode="ª"/><glyph d="M540 513l47 -47l-192 -186v-3l192 -186l-47 -47l-235 235zM295 513l47 -47l-192 -186v-3l192 -186l-47 -47l-235 235z" horiz-adv-x="647" unicode="«"/><glyph d="M480 254h-380v69h380v-69z" horiz-adv-x="581" unicode="­"/><glyph d="M401 629q153 0 258.5 -103t105.5 -261t-105.5 -261t-258.5 -103q-152 0 -257.5 103t-105.5 261t105.5 261t257.5 103zM401 582q-137 0 -225.5 -87.5t-88.5 -228.5t89 -229.5t225 -88.5q137 0 226.5 88t89.5 230q0 141 -89.5 228.5t-226.5 87.5zM491 82l-85 147 q-13 -1 -36 -1h-36v-146h-60v369h126q69 0 107.5 -30t38.5 -83q0 -80 -81 -99l91 -157h-65zM334 275h69q83 0 83 61q0 62 -83 62h-69v-123z" horiz-adv-x="804" unicode="®"/><glyph d="M412 775h-291v69h291v-69z" horiz-adv-x="533" unicode="¯"/><glyph d="M130 589q-50 0 -81.5 31.5t-31.5 80.5t31.5 80.5t81.5 31.5t82 -31.5t32 -80.5t-32 -80.5t-82 -31.5zM130 640q28 0 45 17t17 44q0 28 -17 45t-45 17q-27 0 -44 -17t-17 -45q0 -26 17 -43.5t44 -17.5z" horiz-adv-x="261" unicode="°"/><glyph d="M524 377v-69h-153v-159h-74v159h-153v69h153l-1 161h75v-161h153zM144 69h380v-69h-380v69z" unicode="±"/><glyph d="M32 472v63l163 123q55 38 55 89q0 32 -20.5 51t-59.5 19q-37 0 -57.5 -15.5t-29.5 -51.5l-48 14q24 106 139 106q63 0 98.5 -32t35.5 -87q0 -67 -71 -123q-22 -18 -56.5 -43.5t-57 -42t-24.5 -18.5l2 -3q27 3 74 3h136v-52h-279z" horiz-adv-x="340" unicode="²"/><glyph d="M229 675v-3q36 -5 60.5 -30t24.5 -65q0 -50 -38.5 -81.5t-96.5 -31.5q-64 0 -104.5 33t-47.5 86l53 15q2 -38 27.5 -60.5t67.5 -22.5q40 0 61.5 20t21.5 49q0 31 -23.5 50t-62.5 19h-33v40h31q38 0 61 19t23 47q0 25 -20 43t-64 18q-40 0 -58.5 -17t-25.5 -53l-49 14 q17 106 138 106q66 0 100 -29t34 -74q0 -38 -23.5 -63.5t-56.5 -28.5z" horiz-adv-x="340" unicode="³"/><glyph d="M257 754h-76l104 161l67 -22z" horiz-adv-x="533" unicode="´"/><glyph d="M421 -140v624h-89v-624h-82v343q-105 0 -158.5 48t-53.5 132q0 82 53.5 129.5t158.5 47.5h253v-700h-82z" horiz-adv-x="580" unicode="¶"/><glyph d="M112 231q-26 0 -40 14.5t-14 36.5t14.5 36t39.5 14t39.5 -14t14.5 -36t-14 -36.5t-40 -14.5z" horiz-adv-x="224" unicode="·"/><glyph d="M379 -88q0 -84 -122 -84q-53 0 -83 15v56q23 -14 73 -14q71 0 71 37q0 43 -112 44v58h60v-26q113 -9 113 -86z" horiz-adv-x="533" unicode="¸"/><glyph d="M302 472h-239v52h90v184q0 65 4 85h-3l-4 -4q-4 -4 -11 -11.5t-12 -12.5l-43 -43l-37 36l109 104h55v-338h91v-52z" horiz-adv-x="340" unicode="¹"/><glyph d="M35 397q0 75 50 124.5t123 49.5q72 0 123 -49.5t51 -124.5q0 -73 -51 -122.5t-123 -49.5q-73 0 -123 49t-50 123zM89 397q0 -52 33.5 -86t85.5 -34t85.5 34t33.5 86q0 53 -33.5 87.5t-85.5 34.5t-85.5 -34.5t-33.5 -87.5zM372 111h-326v55h326v-55z" horiz-adv-x="417" unicode="º"/><glyph d="M107 44l-47 47l192 186v3l-192 186l47 47l235 -234zM352 44l-47 47l192 186v3l-192 186l47 47l235 -234z" horiz-adv-x="647" unicode="»"/><glyph d="M545 700l-210 -700h-62l209 700h63zM302 310h-239v51h90v185q0 65 4 85h-3l-4 -4q-4 -4 -11 -11.5t-12 -12.5l-43 -43l-37 36l109 104h55v-339h91v-51zM737 0h-56v99h-187v52l166 240h77v-240h66v-52h-66v-99zM681 151v92q0 23 1 45.5t2 35.5l1 13h-4q-1 0 -64.5 -91 t-64.5 -93l2 -3h3h8.5t12 0.5t14.5 0.5h16h73z" horiz-adv-x="818" unicode="¼"/><glyph d="M302 310h-239v52h90v184q0 65 4 85h-3l-4 -4q-4 -4 -11 -11.5t-12 -12.5l-43 -43l-37 36l109 104h55v-338h91v-52zM545 700l-210 -700h-62l209 700h63zM510 0v64l164 123q55 40 55 89q0 31 -21 50.5t-60 19.5q-37 0 -57.5 -15.5t-29.5 -51.5l-48 14q24 106 140 106 q62 0 97.5 -32t35.5 -87q0 -67 -71 -123q-23 -18 -56.5 -43.5t-56.5 -42.5t-24 -18l1 -3q18 2 74 2h137v-52h-280z" horiz-adv-x="818" unicode="½"/><glyph d="M229 513v-3q36 -5 60.5 -30t24.5 -65q0 -50 -38.5 -81.5t-96.5 -31.5q-64 0 -104.5 33t-47.5 86l53 15q2 -38 27.5 -60.5t67.5 -22.5q40 0 61.5 20t21.5 49q0 31 -23.5 50t-62.5 19h-33v40h31q38 0 61 19t23 47q0 25 -20 43t-64 18q-40 0 -58.5 -17t-25.5 -53l-49 14 q17 106 138 106q66 0 100 -29t34 -74q0 -38 -23.5 -63.5t-56.5 -28.5zM545 700l-210 -700h-62l209 700h63zM737 0h-56v99h-187v52l166 240h77v-240h66v-52h-66v-99zM681 151v92q0 23 1 45.5t2 35.5l1 13h-4q-1 0 -64.5 -91t-64.5 -93l2 -3h3h8.5t12 0.5t14.5 0.5h16h73z" horiz-adv-x="818" unicode="¾"/><glyph d="M294 710q25 0 39.5 -14.5t14.5 -36.5t-14.5 -36t-39.5 -14q-26 0 -40 14t-14 36t14.5 36.5t39.5 14.5zM334 538v-177q-119 -41 -165.5 -79.5t-46.5 -91.5q0 -52 35.5 -89t117.5 -37q139 0 173 127l77 -21q-22 -88 -88 -136t-166 -48q-114 0 -173.5 56.5t-59.5 137.5 q0 44 18 80.5t50.5 63t66.5 44t78 33.5v137h83z" horiz-adv-x="563" unicode="¿"/><glyph d="M337 754l-95 139l67 22l104 -161h-76zM543 186h-355l-78 -186h-87l298 700h89l298 -700h-87zM512 260l-77 183q-10 24 -28.5 68t-29.5 70l-11 26h-2q-1 -1 -68 -163l-77 -184h293z" horiz-adv-x="732" unicode="À"/><glyph d="M388 754h-76l104 161l67 -22zM543 186h-355l-78 -186h-87l298 700h89l298 -700h-87zM512 260l-77 183q-10 24 -28.5 68t-29.5 70l-11 26h-2q-1 -1 -68 -163l-77 -184h293z" horiz-adv-x="732" unicode="Á"/><glyph d="M259 756l-39 45l144 118l142 -118l-38 -46l-104 88zM543 186h-355l-78 -186h-87l298 700h89l298 -700h-87zM512 260l-77 183q-10 24 -28.5 68t-29.5 70l-11 26h-2q-1 -1 -68 -163l-77 -184h293z" horiz-adv-x="732" unicode="Â"/><glyph d="M292 812q-43 0 -71 -28l-17 59q29 35 82 35q28 0 72 -17.5t75 -17.5q41 0 69 26l16 -59q-25 -32 -80 -32q-29 0 -73.5 17t-72.5 17zM543 186h-355l-78 -186h-87l298 700h89l298 -700h-87zM512 260l-77 183q-10 24 -28.5 68t-29.5 70l-11 26h-2q-1 -1 -68 -163l-77 -184 h293z" horiz-adv-x="732" unicode="Ã"/><glyph d="M271 776q-19 0 -32.5 13.5t-13.5 32.5t13.5 33t32.5 14t32.5 -13.5t13.5 -33.5q0 -19 -13.5 -32.5t-32.5 -13.5zM460 776q-19 0 -32.5 13.5t-13.5 32.5q0 20 13.5 33.5t32.5 13.5t32.5 -13.5t13.5 -33.5q0 -19 -13.5 -32.5t-32.5 -13.5zM543 186h-355l-78 -186h-87 l298 700h89l298 -700h-87zM512 260l-77 183q-10 24 -28.5 68t-29.5 70l-11 26h-2q-1 -1 -68 -163l-77 -184h293z" horiz-adv-x="732" unicode="Ä"/><glyph d="M365 739q-45 0 -73.5 26t-28.5 68t28.5 67.5t73.5 25.5q46 0 74 -25.5t28 -67.5q0 -43 -28 -68.5t-74 -25.5zM365 878q-21 0 -34.5 -12.5t-13.5 -32.5q0 -21 13.5 -33.5t34.5 -12.5q22 0 35 12.5t13 33.5q0 20 -13 32.5t-35 12.5zM543 186h-355l-78 -186h-87l298 700h89 l298 -700h-87zM512 260l-77 183q-10 24 -28.5 68t-29.5 70l-11 26h-2q-1 -1 -68 -163l-77 -184h293z" horiz-adv-x="732" unicode="Å"/><glyph d="M935 73v-73h-471v189h-275l-79 -189h-87l299 700h611v-73h-389v-226h307v-70h-307v-258h391zM464 259v368h-91l-154 -368h245z" horiz-adv-x="985" unicode="Æ"/><glyph d="M646 218l79 -21q-35 -86 -106.5 -139.5t-165.5 -66.5q70 -18 70 -79q0 -84 -122 -84q-53 0 -83 15v56q23 -14 73 -14q71 0 71 37q0 43 -112 44v24q-138 16 -225 114t-87 248q0 163 102 262.5t258 99.5q116 0 199.5 -54t118.5 -137l-79 -22q-12 22 -29 42t-45.5 43t-72 37 t-94.5 14q-123 0 -199.5 -77.5t-76.5 -208.5q0 -130 78 -208t196 -78q85 0 152 41t100 112z" horiz-adv-x="769" unicode="Ç"/><glyph d="M259 915l104 -161h-76l-95 139zM77 0v700h471v-76h-390v-220h304v-76h-304v-252h392v-76h-473z" horiz-adv-x="600" unicode="È"/><glyph d="M339 754h-76l104 161l67 -22zM77 0v700h471v-76h-390v-220h304v-76h-304v-252h392v-76h-473z" horiz-adv-x="600" unicode="É"/><glyph d="M457 801l-39 -46l-104 88l-105 -87l-38 45l143 118zM77 0v700h471v-76h-390v-220h304v-76h-304v-252h392v-76h-473z" horiz-adv-x="600" unicode="Ê"/><glyph d="M221 776q-19 0 -32.5 13.5t-13.5 32.5q0 20 13.5 33.5t33.5 13.5q19 0 32 -13.5t13 -33.5q0 -19 -13.5 -32.5t-32.5 -13.5zM410 776q-19 0 -32.5 13.5t-13.5 32.5q0 20 13.5 33.5t32.5 13.5q20 0 33.5 -13.5t13.5 -33.5q0 -19 -14 -32.5t-33 -13.5zM77 0v700h471v-76 h-390v-220h304v-76h-304v-252h392v-76h-473z" horiz-adv-x="600" unicode="Ë"/><glyph d="M62 915l103 -161h-76l-95 139zM77 0v700h81v-700h-81z" horiz-adv-x="235" unicode="Ì"/><glyph d="M141 754h-76l104 161l67 -22zM77 0v700h81v-700h-81z" horiz-adv-x="235" unicode="Í"/><glyph d="M234 803l-41 -44l-75 78l-75 -77l-41 44l116 115zM77 0v700h81v-700h-81z" horiz-adv-x="235" unicode="Î"/><glyph d="M57 776q-19 0 -32.5 13.5t-13.5 32.5t13.5 33t32.5 14t32.5 -13.5t13.5 -33.5q0 -19 -13.5 -32.5t-32.5 -13.5zM179 776q-19 0 -32.5 13.5t-13.5 32.5q0 20 13.5 33.5t32.5 13.5t32.5 -13.5t13.5 -33.5q0 -19 -13.5 -32.5t-32.5 -13.5zM77 0v700h81v-700h-81z" horiz-adv-x="235" unicode="Ï"/><glyph d="M77 700h242q165 0 268.5 -96.5t103.5 -256.5q0 -159 -102.5 -253t-262.5 -94h-249v329h-66v73h66v298zM158 76h164q124 0 205.5 70t81.5 201t-82.5 204t-210.5 73h-158v-222h177v-73h-177v-253z" horiz-adv-x="729" unicode="Ð"/><glyph d="M505 869l17 -59q-28 -32 -81 -32q-29 0 -73.5 17t-71.5 17q-46 0 -71 -28l-17 59q28 35 81 35q27 0 72 -17.5t75 -17.5q41 0 69 26zM568 0l-410 569h-2v-5q0 -5 0.5 -13.5t0.5 -20.5v-27t0.5 -31t0.5 -34.5v-36.5v-401h-81v700h82l410 -564h2v5q0 5 -0.5 14t-0.5 20.5 v26.5t-0.5 30.5t-0.5 33v34.5v400h82v-700h-83z" horiz-adv-x="727" unicode="Ñ"/><glyph d="M345 915l104 -161h-76l-95 139zM38 351q0 161 103.5 262t259.5 101q155 0 259 -101.5t104 -261.5q0 -161 -104 -262.5t-259 -101.5q-156 0 -259.5 101.5t-103.5 262.5zM120 351q0 -131 79.5 -208.5t201.5 -77.5q121 0 201 78t80 208t-80 208t-201 78t-201 -78t-80 -208z" horiz-adv-x="802" unicode="Ò"/><glyph d="M425 754h-76l104 161l67 -22zM38 351q0 161 103.5 262t259.5 101q155 0 259 -101.5t104 -261.5q0 -161 -104 -262.5t-259 -101.5q-156 0 -259.5 101.5t-103.5 262.5zM120 351q0 -131 79.5 -208.5t201.5 -77.5q121 0 201 78t80 208t-80 208t-201 78t-201 -78t-80 -208z" horiz-adv-x="802" unicode="Ó"/><glyph d="M543 801l-39 -46l-104 88l-105 -87l-38 45l143 118zM38 351q0 161 103.5 262t259.5 101q155 0 259 -101.5t104 -261.5q0 -161 -104 -262.5t-259 -101.5q-156 0 -259.5 101.5t-103.5 262.5zM120 351q0 -131 79.5 -208.5t201.5 -77.5q121 0 201 78t80 208t-80 208t-201 78 t-201 -78t-80 -208z" horiz-adv-x="802" unicode="Ô"/><glyph d="M538 869l17 -59q-28 -32 -81 -32q-29 0 -73.5 17t-71.5 17q-46 0 -71 -28l-17 59q25 35 81 35q28 0 72 -17.5t75 -17.5q41 0 69 26zM38 351q0 161 103.5 262t259.5 101q155 0 259 -101.5t104 -261.5q0 -161 -104 -262.5t-259 -101.5q-156 0 -259.5 101.5t-103.5 262.5z M120 351q0 -131 79.5 -208.5t201.5 -77.5q121 0 201 78t80 208t-80 208t-201 78t-201 -78t-80 -208z" horiz-adv-x="802" unicode="Õ"/><glyph d="M307 776q-19 0 -32.5 13.5t-13.5 32.5q0 20 13.5 33.5t33.5 13.5q19 0 32 -13.5t13 -33.5q0 -19 -13.5 -32.5t-32.5 -13.5zM496 776q-19 0 -32.5 13.5t-13.5 32.5q0 20 13.5 33.5t32.5 13.5q20 0 33.5 -13.5t13.5 -33.5q0 -19 -14 -32.5t-33 -13.5zM38 351 q0 161 103.5 262t259.5 101q155 0 259 -101.5t104 -261.5q0 -161 -104 -262.5t-259 -101.5q-156 0 -259.5 101.5t-103.5 262.5zM120 351q0 -131 79.5 -208.5t201.5 -77.5q121 0 201 78t80 208t-80 208t-201 78t-201 -78t-80 -208z" horiz-adv-x="802" unicode="Ö"/><glyph d="M384 290l125 -124l-50 -50l-125 125l-125 -125l-49 50l125 124l-125 125l49 49l125 -124l125 124l49 -50z" unicode="×"/><glyph d="M729 714l-74 -96q109 -104 109 -267q0 -161 -104 -262.5t-259 -101.5q-106 0 -190 49l-75 -99l-61 47l74 98q-111 101 -111 269q0 161 103.5 262t259.5 101q106 0 192 -50l74 96zM120 351q0 -126 78 -206l347 456q-66 36 -144 36q-121 0 -201 -78t-80 -208zM401 65 q120 0 200.5 78t80.5 208q0 124 -76 203l-347 -455q65 -34 142 -34z" horiz-adv-x="802" unicode="Ø"/><glyph d="M293 915l104 -161h-76l-95 139zM628 700v-408q0 -148 -72 -226.5t-208 -78.5t-208 78t-72 227v408h83v-408q0 -115 48 -171t149 -56t150 56t49 171v408h81z" horiz-adv-x="696" unicode="Ù"/><glyph d="M372 754h-76l104 161l67 -22zM628 700v-408q0 -148 -72 -226.5t-208 -78.5t-208 78t-72 227v408h83v-408q0 -115 48 -171t149 -56t150 56t49 171v408h81z" horiz-adv-x="696" unicode="Ú"/><glyph d="M490 801l-38 -46l-104 88l-105 -87l-39 45l144 118zM628 700v-408q0 -148 -72 -226.5t-208 -78.5t-208 78t-72 227v408h83v-408q0 -115 48 -171t149 -56t150 56t49 171v408h81z" horiz-adv-x="696" unicode="Û"/><glyph d="M255 776q-19 0 -32.5 13.5t-13.5 32.5t13.5 33t32.5 14t32.5 -13.5t13.5 -33.5q0 -19 -13.5 -32.5t-32.5 -13.5zM444 776q-19 0 -32.5 13.5t-13.5 32.5q0 20 13.5 33.5t32.5 13.5t32.5 -13.5t13.5 -33.5q0 -19 -13.5 -32.5t-32.5 -13.5zM628 700v-408q0 -148 -72 -226.5 t-208 -78.5t-208 78t-72 227v408h83v-408q0 -115 48 -171t149 -56t150 56t49 171v408h81z" horiz-adv-x="696" unicode="Ü"/><glyph d="M359 754h-76l104 161l67 -22zM369 304v-304h-82v304l-270 396h94l157 -230q16 -22 31.5 -45t22.5 -35l8 -11h2l7 11q7 11 22 33.5t31 44.5l159 232h89z" horiz-adv-x="657" unicode="Ý"/><glyph d="M158 558h122q122 0 188.5 -54t66.5 -153t-66.5 -151.5t-188.5 -52.5h-122v-147h-81v700h81v-142zM158 221h125q171 0 171 130q0 131 -171 131h-125v-261z" horiz-adv-x="562" unicode="Þ"/><glyph d="M369 341h6q76 0 126.5 -47.5t50.5 -125.5q0 -79 -50.5 -130t-135.5 -51q-87 0 -136 45l33 56q43 -35 96 -35t85 31.5t32 80.5q0 48 -32 78.5t-87 30.5h-70v67l83 144l-1 2h-47h-167v-487h-78v560h418l-126 -217v-2z" horiz-adv-x="581" unicode="ß"/><glyph d="M270 614l-95 139l68 22l103 -161h-76zM432 150h-270l-58 -150h-81l229 560h92l229 -560h-82zM405 218l-49 125q-57 143 -57 150h-3q0 -4 -60 -157l-47 -118h216z" horiz-adv-x="596" unicode="à"/><glyph d="M322 614h-76l104 161l67 -22zM432 150h-270l-58 -150h-81l229 560h92l229 -560h-82zM405 218l-49 125q-57 143 -57 150h-3q0 -4 -60 -157l-47 -118h216z" horiz-adv-x="596" unicode="á"/><glyph d="M224 620l-41 44l116 115l116 -116l-41 -44l-75 78zM432 150h-270l-58 -150h-81l229 560h92l229 -560h-82zM405 218l-49 125q-57 143 -57 150h-3q0 -4 -60 -157l-47 -118h216z" horiz-adv-x="596" unicode="â"/><glyph d="M231 672q-36 0 -61 -28l-16 60q22 34 71 34q26 0 66.5 -17.5t67.5 -17.5q31 0 60 26l16 -60q-6 -10 -25.5 -20.5t-44.5 -10.5q-27 0 -68 17t-66 17zM432 150h-270l-58 -150h-81l229 560h92l229 -560h-82zM405 218l-49 125q-57 143 -57 150h-3q0 -4 -60 -157l-47 -118h216 z" horiz-adv-x="596" unicode="ã"/><glyph d="M204 636q-19 0 -32 13.5t-13 32.5q0 20 13.5 33.5t32.5 13.5t32.5 -14t13.5 -33t-14 -32.5t-33 -13.5zM394 636q-19 0 -33 13.5t-14 32.5q0 20 13.5 33.5t33.5 13.5q19 0 32.5 -14t13.5 -33t-13.5 -32.5t-32.5 -13.5zM432 150h-270l-58 -150h-81l229 560h92l229 -560h-82 zM405 218l-49 125q-57 143 -57 150h-3q0 -4 -60 -157l-47 -118h216z" horiz-adv-x="596" unicode="ä"/><glyph d="M299 599q-45 0 -73.5 26t-28.5 68t28.5 67.5t73.5 25.5t73.5 -25.5t28.5 -67.5t-28.5 -68t-73.5 -26zM299 738q-22 0 -35 -12.5t-13 -32.5q0 -21 13 -33.5t35 -12.5t35 12.5t13 33.5q0 20 -13 32.5t-35 12.5zM432 150h-270l-58 -150h-81l229 560h92l229 -560h-82z M405 218l-49 125q-57 143 -57 150h-3q0 -4 -60 -157l-47 -118h216z" horiz-adv-x="596" unicode="å"/><glyph d="M765 73v-73h-395v146h-209l-58 -146h-80l230 560h117h390v-73h-315v-162h244v-71h-244v-181h320zM370 214v275h-74l-108 -275h182z" horiz-adv-x="815" unicode="æ"/><glyph d="M526 172l75 -20q-31 -65 -88 -107.5t-132 -52.5q80 -17 80 -81q0 -41 -31 -63t-91 -22q-55 0 -83 16v56q25 -15 72 -15q72 0 72 38q0 42 -112 43v28q-111 15 -180.5 94.5t-69.5 193.5q0 125 84.5 208t211.5 83q88 0 158.5 -42t104.5 -123l-74 -20q-66 113 -188 113 q-95 0 -156.5 -61.5t-61.5 -157.5q0 -97 61.5 -158.5t155.5 -61.5q66 0 115.5 31t76.5 81z" horiz-adv-x="645" unicode="ç"/><glyph d="M219 775l104 -161h-77l-95 139zM77 0v560h393v-73h-315v-162h243v-71h-243v-181h320v-73h-398z" horiz-adv-x="525" unicode="è"/><glyph d="M298 614h-76l104 161l67 -22zM77 0v560h393v-73h-315v-162h243v-71h-243v-181h320v-73h-398z" horiz-adv-x="525" unicode="é"/><glyph d="M416 661l-38 -46l-105 88l-105 -87l-38 45l143 118zM77 0v560h393v-73h-315v-162h243v-71h-243v-181h320v-73h-398z" horiz-adv-x="525" unicode="ê"/><glyph d="M180 636q-19 0 -32 13.5t-13 32.5q0 20 13.5 33.5t32.5 13.5t32.5 -14t13.5 -33t-14 -32.5t-33 -13.5zM370 636q-19 0 -33 13.5t-14 32.5q0 20 13.5 33.5t33.5 13.5q19 0 32.5 -14t13.5 -33t-13.5 -32.5t-32.5 -13.5zM77 0v560h393v-73h-315v-162h243v-71h-243v-181h320 v-73h-398z" horiz-adv-x="525" unicode="ë"/><glyph d="M60 775l104 -161h-76l-95 139zM77 0v560h78v-560h-78z" horiz-adv-x="232" unicode="ì"/><glyph d="M140 614h-76l104 161l67 -22zM77 0v560h78v-560h-78z" horiz-adv-x="232" unicode="í"/><glyph d="M232 663l-40 -44l-75 78l-76 -77l-40 44l116 115zM77 0v560h78v-560h-78z" horiz-adv-x="232" unicode="î"/><glyph d="M55 636q-19 0 -32 13.5t-13 32.5q0 20 13.5 33.5t32.5 13.5t32.5 -14t13.5 -33t-14 -32.5t-33 -13.5zM178 636q-19 0 -32.5 13.5t-13.5 32.5q0 20 13.5 33.5t32.5 13.5t32.5 -14t13.5 -33t-13.5 -32.5t-32.5 -13.5zM77 0v560h78v-560h-78z" horiz-adv-x="232" unicode="ï"/><glyph d="M77 560h193q138 0 224 -76.5t86 -205.5t-85 -203.5t-220 -74.5h-198v253h-66v70h66v237zM155 73h118q103 0 165.5 52.5t62.5 152.5t-63 154.5t-169 54.5h-114v-164h173v-70h-173v-180z" horiz-adv-x="618" unicode="ð"/><glyph d="M431 729l16 -60q-6 -10 -25.5 -20.5t-44.5 -10.5q-27 0 -68 17t-66 17q-36 0 -61 -28l-16 60q22 34 71 34q26 0 66.5 -17.5t67.5 -17.5q31 0 60 26zM553 0h-80l-318 441h-2v-4q0 -4 0.5 -10.5t0.5 -15v-20t0.5 -24t0.5 -26.5v-28v-313h-78v560h80l317 -434h2v4v9.5v14.5 t-0.5 19t-0.5 22.5v24.5v26v314h78v-560z" horiz-adv-x="630" unicode="ñ"/><glyph d="M277 775l104 -161h-76l-96 139zM38 279q0 127 84.5 209.5t209.5 82.5t209.5 -82.5t84.5 -209.5q0 -125 -84.5 -208t-209.5 -83t-209.5 83t-84.5 208zM117 279q0 -96 61.5 -157.5t153.5 -61.5t153.5 61.5t61.5 157.5q0 97 -61 158.5t-154 61.5t-154 -61.5t-61 -158.5z" horiz-adv-x="665" unicode="ò"/><glyph d="M356 614h-76l104 161l67 -22zM38 279q0 127 84.5 209.5t209.5 82.5t209.5 -82.5t84.5 -209.5q0 -125 -84.5 -208t-209.5 -83t-209.5 83t-84.5 208zM117 279q0 -96 61.5 -157.5t153.5 -61.5t153.5 61.5t61.5 157.5q0 97 -61 158.5t-154 61.5t-154 -61.5t-61 -158.5z" horiz-adv-x="665" unicode="ó"/><glyph d="M474 661l-38 -46l-105 88l-105 -87l-38 45l143 118zM38 279q0 127 84.5 209.5t209.5 82.5t209.5 -82.5t84.5 -209.5q0 -125 -84.5 -208t-209.5 -83t-209.5 83t-84.5 208zM117 279q0 -96 61.5 -157.5t153.5 -61.5t153.5 61.5t61.5 157.5q0 97 -61 158.5t-154 61.5 t-154 -61.5t-61 -158.5z" horiz-adv-x="665" unicode="ô"/><glyph d="M453 729l16 -60q-6 -10 -25.5 -20.5t-44.5 -10.5q-27 0 -68 17t-66 17q-36 0 -61 -28l-16 60q22 34 71 34q26 0 66.5 -17.5t67.5 -17.5q31 0 60 26zM38 279q0 127 84.5 209.5t209.5 82.5t209.5 -82.5t84.5 -209.5q0 -125 -84.5 -208t-209.5 -83t-209.5 83t-84.5 208z M117 279q0 -96 61.5 -157.5t153.5 -61.5t153.5 61.5t61.5 157.5q0 97 -61 158.5t-154 61.5t-154 -61.5t-61 -158.5z" horiz-adv-x="665" unicode="õ"/><glyph d="M238 636q-19 0 -32 13.5t-13 32.5q0 20 13.5 33.5t32.5 13.5t32.5 -14t13.5 -33t-14 -32.5t-33 -13.5zM428 636q-19 0 -33 13.5t-14 32.5q0 20 13.5 33.5t33.5 13.5q19 0 32.5 -14t13.5 -33t-13.5 -32.5t-32.5 -13.5zM38 279q0 127 84.5 209.5t209.5 82.5t209.5 -82.5 t84.5 -209.5q0 -125 -84.5 -208t-209.5 -83t-209.5 83t-84.5 208zM117 279q0 -96 61.5 -157.5t153.5 -61.5t153.5 61.5t61.5 157.5q0 97 -61 158.5t-154 61.5t-154 -61.5t-61 -158.5z" horiz-adv-x="665" unicode="ö"/><glyph d="M334 425q-25 0 -39.5 14.5t-14.5 36.5t14.5 36t39.5 14q26 0 40 -14.5t14 -35.5q0 -22 -14 -36.5t-40 -14.5zM524 254h-380v69h380v-69zM334 55q-25 0 -39.5 14.5t-14.5 36.5t14.5 36t39.5 14q26 0 40 -14.5t14 -35.5q0 -22 -14 -36.5t-40 -14.5z" unicode="÷"/><glyph d="M598 566l-59 -75q87 -84 87 -212q0 -125 -84.5 -208t-209.5 -83q-85 0 -153 40l-57 -75l-58 44l58 74q-84 84 -84 208q0 127 84.5 209.5t209.5 82.5q84 0 149 -38l59 76zM117 279q0 -87 52 -147l267 342q-48 25 -104 25q-93 0 -154 -61.5t-61 -158.5zM332 60 q92 0 153.5 61.5t61.5 157.5q0 91 -54 151l-268 -343q49 -27 107 -27z" horiz-adv-x="665" unicode="ø"/><glyph d="M252 775l104 -161h-77l-95 139zM543 560v-319q0 -126 -61.5 -189.5t-176.5 -63.5t-176 63.5t-61 189.5v319h79v-327q0 -173 159 -173t159 173v327h78z" horiz-adv-x="611" unicode="ù"/><glyph d="M331 614h-76l104 161l67 -22zM543 560v-319q0 -126 -61.5 -189.5t-176.5 -63.5t-176 63.5t-61 189.5v319h79v-327q0 -173 159 -173t159 173v327h78z" horiz-adv-x="611" unicode="ú"/><glyph d="M449 661l-38 -46l-105 88l-105 -87l-38 45l143 118zM543 560v-319q0 -126 -61.5 -189.5t-176.5 -63.5t-176 63.5t-61 189.5v319h79v-327q0 -173 159 -173t159 173v327h78z" horiz-adv-x="611" unicode="û"/><glyph d="M213 636q-19 0 -32 13.5t-13 32.5q0 20 13.5 33.5t32.5 13.5t32.5 -14t13.5 -33t-14 -32.5t-33 -13.5zM403 636q-19 0 -33 13.5t-14 32.5q0 20 14 33.5t33 13.5t32.5 -14t13.5 -33t-13.5 -32.5t-32.5 -13.5zM543 560v-319q0 -126 -61.5 -189.5t-176.5 -63.5t-176 63.5 t-61 189.5v319h79v-327q0 -173 159 -173t159 173v327h78z" horiz-adv-x="611" unicode="ü"/><glyph d="M301 614h-76l104 161l67 -22zM309 0h-78v231l-214 329h89l90 -137q20 -29 39 -58.5t29 -44.5l9 -15h2l9 15q10 14 30 44.5t39 59.5l89 136h82l-215 -329v-231z" horiz-adv-x="541" unicode="ý"/><glyph d="M155 441h78q215 0 215 -160q0 -155 -215 -155h-78v-126h-78v560h78v-119zM155 190h80q69 0 101.5 21t32.5 69q0 47 -33 68.5t-101 21.5h-80v-180z" horiz-adv-x="475" unicode="þ"/><glyph d="M183 636q-19 0 -32.5 13.5t-13.5 32.5q0 20 13.5 33.5t33.5 13.5q19 0 32 -13.5t13 -33.5q0 -19 -13.5 -32.5t-32.5 -13.5zM372 636q-19 0 -32.5 13.5t-13.5 32.5q0 20 13.5 33.5t32.5 13.5t32.5 -13.5t13.5 -33.5q0 -19 -13.5 -32.5t-32.5 -13.5zM309 0h-78v231 l-214 329h89l90 -137q20 -29 39 -58.5t29 -44.5l9 -15h2l9 15q10 14 30 44.5t39 59.5l89 136h82l-215 -329v-231z" horiz-adv-x="541" unicode="ÿ"/><glyph d="M943 0h-465q-24 -4 -75 -4q-159 0 -262 98t-103 256t103.5 256t262.5 98q45 0 73 -4h464v-76h-389v-219h307v-76h-307v-253h391v-76zM120 351q0 -129 77.5 -205t206.5 -76q38 0 68 10v542q-29 8 -68 8q-129 0 -206.5 -75t-77.5 -204z" horiz-adv-x="997" unicode="Œ"/><glyph d="M787 0h-388q-21 -3 -64 -3q-130 0 -213.5 78t-83.5 205t83.5 205t214.5 78q40 0 65 -3h381v-73h-315v-162h243v-71h-243v-181h320v-73zM117 281q0 -97 60 -155t160 -58q27 0 55 5v414q-28 5 -55 5q-100 0 -160 -57.5t-60 -153.5z" horiz-adv-x="840" unicode="œ"/><glyph d="M242 776q-19 0 -32.5 13.5t-13.5 32.5t13.5 33t32.5 14t32.5 -13.5t13.5 -33.5q0 -19 -13.5 -32.5t-32.5 -13.5zM431 776q-19 0 -32.5 13.5t-13.5 32.5q0 20 13.5 33.5t32.5 13.5t32.5 -14t13.5 -33t-13.5 -32.5t-32.5 -13.5zM369 304v-304h-82v304l-270 396h94l157 -230 q16 -22 31.5 -45t22.5 -35l8 -11h2l7 11q7 11 22 33.5t31 44.5l159 232h89z" horiz-adv-x="657" unicode="Ÿ"/><glyph d="M409 801l-38 -46l-104 88l-105 -87l-39 45l144 118z" horiz-adv-x="533" unicode="ˆ"/><glyph d="M390 869l16 -60q-22 -31 -70 -31q-27 0 -68 17t-66 17q-36 0 -61 -28l-16 60q22 34 71 34q26 0 66.5 -17.5t67.5 -17.5q31 0 60 26z" horiz-adv-x="533" unicode="˜"/><glyph horiz-adv-x="463"/><glyph horiz-adv-x="926"/><glyph horiz-adv-x="463"/><glyph horiz-adv-x="926"/><glyph horiz-adv-x="308"/><glyph horiz-adv-x="231"/><glyph horiz-adv-x="154"/><glyph horiz-adv-x="154"/><glyph horiz-adv-x="115"/><glyph horiz-adv-x="185"/><glyph horiz-adv-x="51"/><glyph d="M480 254h-380v69h380v-69z" horiz-adv-x="581" unicode="‐"/><glyph d="M480 254h-380v69h380v-69z" horiz-adv-x="581" unicode="‑"/><glyph d="M480 254h-380v69h380v-69z" horiz-adv-x="581" unicode="‒"/><glyph d="M567 254h-467v69h467v-69z" unicode="–"/><glyph d="M900 254h-800v69h800v-69z" horiz-adv-x="1001" unicode="—"/><glyph d="M116 607q20 3 33 -8.5t13 -32.5q0 -20 -14.5 -33.5t-37.5 -13.5q-27 0 -43 17.5t-16 47.5q0 37 24.5 75t66.5 52l33 -38q-22 -7 -39 -27t-20 -39z" horiz-adv-x="224" unicode="‘"/><glyph d="M108 624q-21 -3 -33.5 8.5t-12.5 32.5q0 20 14.5 33.5t37.5 13.5q27 0 42.5 -17.5t15.5 -47.5q0 -37 -24.5 -75t-65.5 -52l-33 38q21 7 38 27t21 39z" horiz-adv-x="224" unicode="’"/><glyph d="M108 -2q-21 -3 -33.5 8.5t-12.5 31.5q0 21 14 34t38 13q27 0 42.5 -17t15.5 -47q0 -37 -24.5 -75t-65.5 -53l-33 39q21 7 38 27t21 39z" horiz-adv-x="224" unicode="‚"/><glyph d="M297 607q21 3 33.5 -8.5t12.5 -32.5q0 -20 -14.5 -33.5t-37.5 -13.5q-27 0 -43 17.5t-16 47.5q0 37 24.5 75t66.5 52l33 -38q-21 -7 -38 -27t-21 -39zM114 607q20 3 32.5 -8.5t12.5 -32.5q0 -20 -14 -33.5t-37 -13.5q-27 0 -43 17.5t-16 47.5q0 37 24.5 75t66.5 52 l32 -38q-21 -7 -38 -27t-20 -39z" horiz-adv-x="407" unicode="“"/><glyph d="M108 624q-21 -3 -33.5 8.5t-12.5 32.5q0 20 14.5 33.5t37.5 13.5q27 0 42.5 -17.5t15.5 -47.5q0 -37 -24.5 -75t-65.5 -52l-33 38q21 7 38 27t21 39zM291 624q-20 -3 -32.5 8.5t-12.5 32.5q0 20 14 33.5t37 13.5q27 0 43 -17.5t16 -47.5q0 -37 -24.5 -75t-66.5 -52 l-33 38q22 7 39 27t20 39z" horiz-adv-x="407" unicode="”"/><glyph d="M108 -2q-21 -3 -33.5 8.5t-12.5 31.5q0 21 14 34t38 13q27 0 42.5 -17t15.5 -47q0 -37 -24.5 -75t-65.5 -53l-33 39q21 7 38 27t21 39zM278 -2q-21 -3 -33.5 8.5t-12.5 31.5q0 21 14 34t38 13q27 0 43 -17t16 -47q0 -37 -24.5 -75t-66.5 -53l-33 39q21 7 38 27t21 39z" horiz-adv-x="394" unicode="„"/><glyph d="M159 205q-35 0 -58.5 22.5t-23.5 57.5q0 34 23.5 56.5t58.5 22.5t58.5 -22.5t23.5 -56.5q0 -35 -23.5 -57.5t-58.5 -22.5z" horiz-adv-x="318" unicode="•"/><glyph d="M102 -11q-21 0 -33 12t-12 30t12 29.5t33 11.5t32.5 -11.5t11.5 -29.5q0 -19 -11.5 -30.5t-32.5 -11.5zM342 -11q-21 0 -33 12t-12 30t12 29.5t33 11.5t32.5 -11.5t11.5 -29.5q0 -19 -11.5 -30.5t-32.5 -11.5zM592 -11q-21 0 -33 12t-12 30t12 29.5t33 11.5t32.5 -11.5 t11.5 -29.5q0 -19 -11.5 -30.5t-32.5 -11.5z" horiz-adv-x="694" unicode="…"/><glyph horiz-adv-x="185"/><glyph d="M295 513l47 -47l-192 -186v-3l192 -186l-47 -47l-235 235z" horiz-adv-x="402" unicode="‹"/><glyph d="M107 44l-47 47l192 186v3l-192 186l47 47l235 -234z" horiz-adv-x="402" unicode="›"/><glyph horiz-adv-x="231"/><glyph d="M482 155l76 -21q-23 -64 -79.5 -105t-145.5 -41q-101 0 -164 52t-82 153h-49v61h42l-1 31v20h-40v60h46q17 101 78.5 153.5t163.5 52.5q88 0 149.5 -39.5t78.5 -116.5l-76 -21q-11 44 -47 75t-104 31q-131 0 -158 -135h173v-60h-180l-1 -19q0 -6 0.5 -16.5t0.5 -15.5h180 v-61h-171q30 -132 164 -132q109 0 146 94z" horiz-adv-x="602" unicode="€"/><glyph d="M707 375h-54v132v124h-1l-5 -10q-5 -10 -13.5 -27.5t-16.5 -32.5l-58 -112h-34l-58 112q-8 15 -17.5 33t-15.5 28l-5 10h-1l1 -125v-132h-53v325h68l71 -138q7 -12 14 -25.5t11 -20.5l3 -6h1q3 3 26 51l69 139h68v-325zM312 700v-52h-110v-273h-55v273h-110v52h275z" horiz-adv-x="784" unicode="™"/></font>
</defs>
</svg>
